<?xml version="1.0" standalone="no"?>
<!DOCTYPE svg PUBLIC "-//W3C//DTD SVG 1.1//EN" "http://www.w3.org/Graphics/SVG/1.1/DTD/svg11.dtd" >
<svg xmlns="http://www.w3.org/2000/svg">
<metadata>Generated by IcoMoon</metadata>
<defs>
<font id="adstiladrin" horiz-adv-x="1024">
<font-face units-per-em="1024" ascent="960" descent="-64" />
<missing-glyph horiz-adv-x="1024" />
<glyph unicode="&#x20;" horiz-adv-x="512" d="" />
<glyph unicode="&#xe900;" glyph-name="close-button" d="M108.211 959.978l915.763-915.763-108.24-108.24-915.763 915.763 108.24 108.24zM915.789 959.978l108.24-108.24-915.763-915.763-108.24 108.24 915.763 915.763z" />
<glyph unicode="&#xe901;" d="M664.37-40.933l-50.722 162.955c179.98 56.209 280.33 247.678 224.129 427.666-42.599 136.401-165.638 231.85-308.355 239.194l8.525 170.459c282.451-14.366 499.784-254.982 485.418-537.433-10.895-214.247-154.181-398.999-358.98-462.857l-0.016 0.016z" />
<glyph unicode="&#xe902;" d="M506.878 960h10.236v-170.668h-10.236v170.668z" />
<glyph unicode="&#xe903;" d="M495.695 788.98l-10.223-0.643-10.718 170.327 10.223 0.643 10.718-170.327z" />
<glyph unicode="&#xe904;" d="M474.312 787.28l-10.163-1.283-21.368 169.32 10.163 1.283 21.368-169.32z" />
<glyph unicode="&#xe905;" d="M453.070 784.243l-10.063-1.919-31.965 167.639 10.063 1.919 31.965-167.639z" />
<glyph unicode="&#xe906;" d="M432.099 779.901l-9.921-2.549-42.46 165.284 9.921 2.549 42.46-165.284z" />
<glyph unicode="&#xe907;" d="M411.376 774.185l-9.735-3.162-52.719 162.322 9.735 3.162 52.719-162.322z" />
<glyph unicode="&#xe908;" d="M391.107 767.223l-9.517-3.767-62.809 158.695 9.517 3.767 62.809-158.695z" />
<glyph unicode="&#xe909;" d="M371.309 759.021l-9.261-4.358-72.67 154.42 9.261 4.358 72.67-154.42z" />
<glyph unicode="&#xe90a;" d="M352.062 749.609l-8.984-4.939-82.216 149.535 8.984 4.939 82.216-149.535z" />
<glyph unicode="&#xe90b;" d="M333.439 738.984l-8.628-5.479-91.478 144.051 8.628 5.479 91.478-144.051z" />
<glyph unicode="&#xe90c;" d="M315.525 727.136l-8.281-6.018-100.35 138.090 8.281 6.018 100.35-138.090z" />
<glyph unicode="&#xe90d;" d="M298.389 714.264l-7.886-6.525-108.801 131.483 7.886 6.525 108.801-131.483z" />
<glyph unicode="&#xe90e;" d="M282.083 700.331l-7.454-7.003-116.856 124.383 7.454 7.003 116.856-124.383z" />
<glyph unicode="&#xe90f;" d="M266.697 685.319l-7.009-7.46-124.424 116.895 7.009 7.46 124.424-116.895z" />
<glyph unicode="&#xe910;" d="M252.338 669.595l-6.519-7.892-131.604 108.714 6.519 7.892 131.604-108.714z" />
<glyph unicode="&#xe911;" d="M238.857 652.742l-6.018-8.281-138.090 100.35 6.018 8.281 138.090-100.35z" />
<glyph unicode="&#xe912;" d="M226.491 635.194l-5.481-8.635-144.068 91.444 5.481 8.635 144.068-91.444z" />
<glyph unicode="&#xe913;" d="M215.349 616.938l-4.939-8.984-149.556 82.228 4.939 8.984 149.556-82.228z" />
<glyph unicode="&#xe914;" d="M205.341 597.969l-4.358-9.261-154.42 72.67 4.358 9.261 154.42-72.67z" />
<glyph unicode="&#xe915;" d="M196.541 578.442l-3.767-9.517-158.695 62.809 3.767 9.517 158.695-62.809z" />
<glyph unicode="&#xe916;" d="M188.952 558.323l-3.165-9.734-162.305 52.771 3.165 9.734 162.305-52.771z" />
<glyph unicode="&#xe917;" d="M182.667 537.873l-2.547-9.922-165.301 42.426 2.547 9.922 165.301-42.426z" />
<glyph unicode="&#xe918;" d="M177.68 516.958l-1.922-10.062-167.622 32.016 1.922 10.062 167.622-32.016z" />
<glyph unicode="&#xe919;" d="M173.994 495.846l-1.287-10.163-169.32 21.436 1.287 10.163 169.32-21.436z" />
<glyph unicode="&#xe91a;" d="M171.675 474.54l-0.643-10.223-170.327 10.718 0.643 10.223 170.327-10.718z" />
<glyph unicode="&#xe91b;" d="M0 453.122h170.668v-10.244h-170.668v10.244z" />
<glyph unicode="&#xe91c;" d="M171.653 421.505l-170.327-10.752-0.645 10.223 170.327 10.752 0.645-10.223z" />
<glyph unicode="&#xe91d;" d="M174.009 400.135l-169.337-21.334-1.28 10.164 169.337 21.334 1.28-10.164z" />
<glyph unicode="&#xe91e;" d="M177.617 378.91l-167.584-31.92-1.915 10.055 167.584 31.92 1.915-10.055z" />
<glyph unicode="&#xe91f;" d="M182.74 358.086l-165.374-42.317-2.539 9.924 165.374 42.317 2.539-9.924z" />
<glyph unicode="&#xe920;" d="M188.949 337.609l-162.339-52.668-3.159 9.736 162.339 52.668 3.159-9.736z" />
<glyph unicode="&#xe921;" d="M196.516 317.533l-158.746-62.706-3.764 9.528 158.746 62.706 3.764-9.528z" />
<glyph unicode="&#xe922;" d="M205.387 298.083l-154.464-72.708-4.363 9.269 154.464 72.708 4.363-9.269z" />
<glyph unicode="&#xe923;" d="M215.29 279.059l-149.501-82.267-4.939 8.975 149.501 82.267 4.939-8.975z" />
<glyph unicode="&#xe924;" d="M226.579 260.796l-144.129-91.41-5.482 8.644 144.129 91.41 5.482-8.644z" />
<glyph unicode="&#xe925;" d="M238.822 243.224l-138.043-100.375-6.024 8.285 138.043 100.375 6.024-8.285z" />
<glyph unicode="&#xe926;" d="M252.356 226.376l-131.619-108.63-6.515 7.894 131.619 108.63 6.515-7.894z" />
<glyph unicode="&#xe927;" d="M266.678 210.578l-124.421-116.727-6.992 7.453 124.421 116.727 6.992-7.453z" />
<glyph unicode="&#xe928;" d="M282.066 195.727l-116.788-124.451-7.458 6.999 116.788 124.451 7.458-6.999z" />
<glyph unicode="&#xe929;" d="M298.261 181.78l-108.63-131.636-7.895 6.515 108.63 131.636 7.895-6.515z" />
<glyph unicode="&#xe92a;" d="M315.544 168.844l-100.35-138.073-8.286 6.022 100.35 138.073 8.286-6.022z" />
<glyph unicode="&#xe92b;" d="M333.425 156.986l-91.478-144.051-8.634 5.483 91.478 144.051 8.634-5.483z" />
<glyph unicode="&#xe92c;" d="M352.1 146.415l-82.267-149.501-8.982 4.942 82.267 149.501 8.982-4.942z" />
<glyph unicode="&#xe92d;" d="M371.301 137.031l-72.708-154.464-9.261 4.359 72.708 154.464 9.261-4.359z" />
<glyph unicode="&#xe92e;" d="M391.047 128.751l-62.689-158.746-9.52 3.76 62.689 158.746 9.52-3.76z" />
<glyph unicode="&#xe92f;" d="M411.343 121.84l-52.671-162.347-9.736 3.159 52.671 162.347 9.736-3.159z" />
<glyph unicode="&#xe930;" d="M431.986 116.077l-42.324-165.335-9.924 2.54 42.324 165.335 9.924-2.54z" />
<glyph unicode="&#xe931;" d="M452.935 111.723l-31.918-167.593-10.064 1.917 31.918 167.593 10.064-1.917z" />
<glyph unicode="&#xe932;" d="M474.241 108.661l-21.33-169.313-10.164 1.28 21.33 169.313 10.164-1.28z" />
<glyph unicode="&#xe933;" d="M495.755 106.999l-10.752-170.319-10.223 0.645 10.752 170.319 10.223-0.645z" />
<glyph unicode="&#xe934;" d="M506.878 106.668h10.236v-170.668h-10.236v170.668z" />
<glyph unicode="&#xe935;" d="M549.287-62.693l-10.223-0.643-10.718 170.327 10.223 0.643 10.718-170.327z" />
<glyph unicode="&#xe936;" d="M581.296-59.275l-10.163-1.287-21.436 169.32 10.163 1.287 21.436-169.32z" />
<glyph unicode="&#xe937;" d="M612.93-53.943l-10.071-1.923-32.014 167.631 10.071 1.923 32.014-167.631z" />
<glyph unicode="&#xe938;" d="M644.366-46.649l-9.921-2.549-42.46 165.284 9.921 2.549 42.46-165.284z" />
<glyph unicode="&#xe939;" d="M379.018 354.772v34.428h-62.38v16.181l65.617 93.176h14.414v-93.176h19.419v-16.181h-19.419v-34.428h-17.652zM379.018 405.381v64.822l-45.017-64.822h45.017z" />
<glyph unicode="&#xe93a;" d="M434.134 392.43l18.535 1.567c1.374-9.023 4.556-15.812 9.561-20.351 4.997-4.539 11.031-6.813 18.094-6.813 8.5 0 15.691 3.198 21.581 9.601 5.881 6.411 8.83 14.904 8.83 25.501 0 10.075-2.828 18.013-8.484 23.838s-13.064 8.725-22.215 8.725c-5.688 0-10.822-1.286-15.402-3.865-4.58-2.587-8.179-5.937-10.79-10.051l-16.575 2.153 13.924 73.853h71.499v-16.872h-57.382l-7.745-38.646c8.629 6.018 17.684 9.023 27.165 9.023 12.558 0 23.147-4.347 31.776-13.040 8.629-8.701 12.944-19.885 12.944-33.552 0-13.008-3.8-24.256-11.377-33.737-9.216-11.634-21.806-17.451-37.762-17.451-13.080 0-23.75 3.656-32.017 10.983-8.251 7.335-12.976 17.041-14.157 29.133z" />
<glyph unicode="&#xe93b;" d="M549.179 464.033c0 10.26 2.587 18.993 7.753 26.184 5.166 7.199 12.646 10.798 22.456 10.798 9.023 0 16.495-3.222 22.416-9.665 5.913-6.444 8.87-15.9 8.87-28.386 0-12.164-2.989-21.532-8.974-28.105-5.978-6.564-13.353-9.858-22.111-9.858-8.701 0-15.94 3.23-21.725 9.714-5.793 6.46-8.685 16.238-8.685 29.318zM579.879 488.843c-4.387 0-8.026-1.896-10.935-5.696-2.908-3.792-4.363-10.75-4.363-20.89 0-9.216 1.47-15.707 4.419-19.467 2.933-3.768 6.564-5.64 10.879-5.64 4.451 0 8.123 1.896 11.031 5.688s4.371 10.726 4.371 20.793c0 9.28-1.478 15.804-4.419 19.572-2.941 3.76-6.604 5.64-10.983 5.64zM579.984 349.477l78.649 151.53h14.325l-78.368-151.53h-14.607zM642.154 388.509c0 10.332 2.587 19.074 7.753 26.241 5.166 7.159 12.678 10.734 22.561 10.734 9.023 0 16.495-3.214 22.408-9.657 5.921-6.444 8.87-15.9 8.87-28.394 0-12.164-2.989-21.524-8.966-28.097-5.986-6.564-13.393-9.858-22.215-9.858-8.701 0-15.94 3.254-21.725 9.762-5.793 6.5-8.685 16.262-8.685 29.27zM672.958 413.319c-4.459 0-8.131-1.888-11.039-5.68-2.908-3.8-4.363-10.758-4.363-20.898 0-9.159 1.47-15.627 4.419-19.419 2.933-3.792 6.564-5.688 10.879-5.688 4.515 0 8.219 1.896 11.136 5.688 2.9 3.792 4.363 10.726 4.363 20.793 0 9.28-1.478 15.804-4.411 19.572-2.949 3.76-6.604 5.632-10.983 5.632z" />
<glyph unicode="&#xe93c;" d="M675.328-41.627l-49.186 163.106c138.997 44.676 232.391 175.765 232.391 326.205 0 182.2-137.968 332.048-314.045 341.146l8.25 170.6c264.275-13.648 471.293-238.42 471.293-511.723-0.023-225.676-140.157-422.302-348.703-489.335z" />
<glyph unicode="&#xe93d;" d="M491.454 960h9.932v-165.475h-9.932v165.475z" />
<glyph unicode="&#xe93e;" d="M480.611 794.184l-9.912-0.624-10.392 165.144 9.912 0.624 10.392-165.144z" />
<glyph unicode="&#xe93f;" d="M459.879 792.536l-9.854-1.244-20.717 164.167 9.854 1.244 20.717-164.167z" />
<glyph unicode="&#xe940;" d="M439.283 789.591l-9.756-1.86-30.992 162.538 9.756 1.86 30.992-162.538z" />
<glyph unicode="&#xe941;" d="M418.95 785.382l-9.619-2.471-41.168 160.255 9.619 2.471 41.168-160.255z" />
<glyph unicode="&#xe942;" d="M398.858 779.839l-9.439-3.066-51.115 157.383 9.439 3.066 51.115-157.383z" />
<glyph unicode="&#xe943;" d="M379.206 773.089l-9.228-3.652-60.898 153.866 9.228 3.652 60.898-153.866z" />
<glyph unicode="&#xe944;" d="M360.010 765.137l-8.98-4.226-70.459 149.721 8.98 4.226 70.459-149.721z" />
<glyph unicode="&#xe945;" d="M341.349 756.011l-8.71-4.789-79.714 144.985 8.71 4.789 79.714-144.985z" />
<glyph unicode="&#xe946;" d="M323.292 745.71l-8.365-5.312-88.694 139.667 8.365 5.312 88.694-139.667z" />
<glyph unicode="&#xe947;" d="M305.924 734.222l-8.029-5.835-97.296 133.888 8.029 5.835 97.296-133.888z" />
<glyph unicode="&#xe948;" d="M289.309 721.742l-7.646-6.327-105.49 127.482 7.646 6.327 105.49-127.482z" />
<glyph unicode="&#xe949;" d="M273.499 708.233l-7.227-6.79-113.3 120.598 7.227 6.79 113.3-120.598z" />
<glyph unicode="&#xe94a;" d="M258.583 688.207l-6.795-7.233-120.638 113.338 6.795 7.233 120.638-113.338z" />
<glyph unicode="&#xe94b;" d="M244.664 672.167l-6.322-7.65-127.56 105.417 6.322 7.65 127.56-105.417z" />
<glyph unicode="&#xe94c;" d="M231.595 655.045l-5.835-8.029-133.894 97.301 5.835 8.029 133.894-97.301z" />
<glyph unicode="&#xe94d;" d="M219.586 637.199l-5.312-8.365-139.667 88.694 5.312 8.365 139.667-88.694z" />
<glyph unicode="&#xe94e;" d="M208.797 618.659l-4.789-8.71-145.005 79.726 4.789 8.71 145.005-79.726z" />
<glyph unicode="&#xe94f;" d="M199.091 599.422l-4.226-8.98-149.721 70.459 4.226 8.98 149.721-70.459z" />
<glyph unicode="&#xe950;" d="M190.562 579.613l-3.652-9.228-153.866 60.898 3.652 9.228 153.866-60.898z" />
<glyph unicode="&#xe951;" d="M183.19 559.227l-3.070-9.438-157.366 51.181 3.070 9.438 157.366-51.181z" />
<glyph unicode="&#xe952;" d="M177.109 538.543l-2.469-9.62-160.271 41.135 2.469 9.62 160.271-41.135z" />
<glyph unicode="&#xe953;" d="M172.273 517.401l-1.863-9.755-162.522 31.042 1.863 9.755 162.522-31.042z" />
<glyph unicode="&#xe954;" d="M168.699 496.065l-1.247-9.854-164.167 20.784 1.247 9.854 164.167-20.784z" />
<glyph unicode="&#xe955;" d="M166.45 474.567l-0.624-9.912-165.144 10.392 0.624 9.912 165.144-10.392z" />
<glyph unicode="&#xe956;" d="M0 452.966h165.475v-9.932h-165.475v9.932z" />
<glyph unicode="&#xe957;" d="M166.43 421.471l-165.144-10.425-0.626 9.92 165.144 10.425 0.626-9.92z" />
<glyph unicode="&#xe958;" d="M168.689 399.913l-164.184-20.684-1.241 9.847 164.184 20.684 1.241-9.847z" />
<glyph unicode="&#xe959;" d="M172.236 378.525l-162.501-30.932-1.856 9.75 162.501 30.932 1.856-9.75z" />
<glyph unicode="&#xe95a;" d="M177.179 357.433l-160.342-41.029-2.462 9.622 160.342 41.029 2.462-9.622z" />
<glyph unicode="&#xe95b;" d="M183.223 336.715l-157.399-51.065-3.063 9.44 157.399 51.065 3.063-9.44z" />
<glyph unicode="&#xe95c;" d="M190.535 316.36l-153.915-60.798-3.649 9.238 153.915 60.798 3.649-9.238z" />
<glyph unicode="&#xe95d;" d="M199.107 296.62l-149.757-70.492-4.23 8.987 149.757 70.492 4.23-8.987z" />
<glyph unicode="&#xe95e;" d="M208.737 277.338l-144.952-79.764-4.788 8.702 144.952 79.764 4.788-8.702z" />
<glyph unicode="&#xe95f;" d="M219.659 258.779l-139.743-88.628-5.307 8.368 139.743 88.628 5.307-8.368z" />
<glyph unicode="&#xe960;" d="M231.553 240.921l-133.842-97.32-5.841 8.033 133.842 97.32 5.841-8.033z" />
<glyph unicode="&#xe961;" d="M244.677 223.783l-127.614-105.325-6.322 7.66 127.614 105.325 6.322-7.66z" />
<glyph unicode="&#xe962;" d="M258.52 207.619l-120.624-113.197-6.786 7.231 120.624 113.197 6.786-7.231z" />
<glyph unicode="&#xe963;" d="M273.484 187.825l-113.234-120.664-7.231 6.786 113.234 120.664 7.231-6.786z" />
<glyph unicode="&#xe964;" d="M289.184 174.3l-105.325-127.631-7.655 6.317 105.325 127.631 7.655-6.317z" />
<glyph unicode="&#xe965;" d="M305.942 161.757l-97.296-133.871-8.034 5.839 97.296 133.871 8.034-5.839z" />
<glyph unicode="&#xe966;" d="M323.278 150.262l-88.694-139.667-8.372 5.316 88.694 139.667 8.372-5.316z" />
<glyph unicode="&#xe967;" d="M341.386 140.014l-79.764-144.952-8.708 4.792 79.764 144.952 8.708-4.792z" />
<glyph unicode="&#xe968;" d="M360.001 130.914l-70.496-149.764-8.98 4.227 70.496 149.764 8.98-4.227z" />
<glyph unicode="&#xe969;" d="M379.148 122.885l-60.782-153.915-9.231 3.645 60.782 153.915 9.231-3.645z" />
<glyph unicode="&#xe96a;" d="M398.826 116.186l-51.068-157.407-9.44 3.063 51.068 157.407 9.44-3.063z" />
<glyph unicode="&#xe96b;" d="M418.84 110.596l-41.036-160.304-9.622 2.463 41.036 160.304 9.622-2.463z" />
<glyph unicode="&#xe96c;" d="M439.15 106.378l-30.947-162.493-9.757 1.858 30.947 162.493 9.757-1.858z" />
<glyph unicode="&#xe96d;" d="M459.808 103.407l-20.681-164.161-9.855 1.242 20.681 164.161 9.855-1.242z" />
<glyph unicode="&#xe96e;" d="M480.67 101.794l-10.424-165.136-9.912 0.626 10.424 165.136 9.912-0.626z" />
<glyph unicode="&#xe96f;" d="M491.454 101.475h9.932v-165.475h-9.932v165.475z" />
<glyph unicode="&#xe970;" d="M532.547-62.748l-9.912-0.624-10.392 165.144 9.912 0.624 10.392-165.144z" />
<glyph unicode="&#xe971;" d="M563.616-59.418l-9.854-1.247-20.784 164.167 9.854 1.247 20.784-164.167z" />
<glyph unicode="&#xe972;" d="M594.285-54.247l-9.764-1.865-31.040 162.53 9.764 1.865 31.040-162.53z" />
<glyph unicode="&#xe973;" d="M624.732-47.143l-9.619-2.473-41.201 160.255 9.619 2.473 41.201-160.255z" />
<glyph unicode="&#xe974;" d="M383.22 357.578v33.38h-60.481v15.689l63.621 90.34h13.975v-90.34h18.828v-15.689h-18.828v-33.38h-17.115zM383.22 406.647v62.85l-43.647-62.85h43.647z" />
<glyph unicode="&#xe975;" d="M436.659 394.089l17.971 1.519c1.332-8.748 4.417-15.331 9.27-19.732 4.845-4.401 10.696-6.606 17.543-6.606 8.242 0 15.214 3.1 20.924 9.309 5.702 6.216 8.561 14.45 8.561 24.725 0 9.769-2.742 17.465-8.226 23.113s-12.666 8.46-21.539 8.46c-5.515 0-10.493-1.246-14.933-3.747-4.44-2.508-7.93-5.757-10.462-9.745l-16.071 2.088 13.5 71.605h69.315v-16.359h-55.628l-7.51-37.47c8.366 5.835 17.146 8.748 26.338 8.748 12.176 0 22.443-4.214 30.809-12.643 8.366-8.437 12.55-19.28 12.55-32.531 0-12.612-3.677-23.518-11.031-32.71-8.935-11.28-21.142-16.92-36.613-16.92-12.682 0-23.027 3.544-31.043 10.649-8 7.112-12.581 16.523-13.726 28.246z" />
<glyph unicode="&#xe976;" d="M548.212 463.514c0 9.948 2.493 18.416 7.51 25.388 5.009 6.98 12.269 10.47 21.781 10.47 8.748 0 15.993-3.124 21.726-9.371s8.6-15.416 8.6-27.522c0-11.794-2.898-20.877-8.701-27.249-5.796-6.364-12.947-9.558-21.446-9.558-8.429 0-15.448 3.132-21.056 9.418-5.617 6.263-8.413 15.744-8.413 28.426zM577.969 487.569c-4.246 0-7.782-1.838-10.602-5.523-2.812-3.677-4.23-10.423-4.23-20.254 0-8.935 1.433-15.229 4.277-18.875 2.859-3.653 6.372-5.469 10.555-5.469 4.308 0 7.883 1.838 10.696 5.515 2.82 3.677 4.23 10.4 4.23 20.16 0 8.997-1.426 15.323-4.277 18.976-2.851 3.646-6.403 5.469-10.649 5.469zM578.063 352.444l76.272 146.919h13.874l-75.976-146.919h-14.17zM638.357 390.288c0 10.018 2.493 18.493 7.51 25.442 5.009 6.941 12.3 10.407 21.874 10.407 8.748 0 15.993-3.116 21.726-9.364s8.608-15.416 8.608-27.53c0-11.794-2.906-20.869-8.701-27.242-5.804-6.364-12.978-9.558-21.547-9.558-8.429 0-15.448 3.155-21.056 9.465-5.617 6.302-8.413 15.767-8.413 28.379zM668.208 414.343c-4.308 0-7.876-1.831-10.696-5.508-2.812-3.685-4.23-10.431-4.23-20.262 0-8.881 1.433-15.152 4.277-18.828 2.859-3.677 6.372-5.515 10.555-5.515 4.378 0 7.969 1.838 10.797 5.515s4.23 10.4 4.23 20.16c0 8.997-1.426 15.323-4.284 18.976-2.843 3.646-6.403 5.461-10.649 5.461z" />
<glyph unicode="&#xe977;" glyph-name="blue_down_thick" horiz-adv-x="1709" d="M854.478-64.062l-789.791 826.942c-35.715 37.401-34.341 96.718 3.060 132.433 37.401 35.653 96.656 34.404 132.433-3.060l654.299-685.081 654.361 685.081c35.778 37.463 94.97 38.775 132.433 2.997 37.401-35.715 38.775-94.97 3.060-132.433l-789.854-826.88z" />
<glyph unicode="&#xe978;" glyph-name="blue-down-arrow_thin" horiz-adv-x="1790" d="M895.113-63.937l-851.732 891.849c-23.919 25.049-23.040 64.789 2.072 88.708 24.986 23.919 64.789 23.103 88.771-2.072l760.953-796.675 760.89 796.675c24.107 25.112 63.784 25.991 88.771 2.072 25.049-23.919 25.991-63.721 2.072-88.771l-851.795-891.786z" />
<glyph unicode="&#xe979;" horiz-adv-x="2199" d="M1572.196 136.184h626.897v-200.214h-626.897v200.214z" />
<glyph unicode="&#xe97a;" horiz-adv-x="2199" d="M2197.274 36.082c0-55.022-139.521-99.627-311.629-99.627s-311.629 44.605-311.629 99.627c0 55.022 139.521 99.627 311.629 99.627s311.629-44.605 311.629-99.627z" />
<glyph unicode="&#xe97b;" horiz-adv-x="2199" d="M2162.053 36.082c0 48.808-123.758 88.375-276.428 88.375-152.63 0-276.388-39.568-276.388-88.375s123.758-88.375 276.388-88.375c152.66 0 276.428 39.568 276.428 88.375z" />
<glyph unicode="&#xe97c;" horiz-adv-x="2199" d="M2126.822 36.082c0 42.611-107.967 77.124-241.197 77.124-133.2 0-241.157-34.513-241.157-77.124 0-42.57 107.967-77.124 241.157-77.124 133.24 0 241.197 34.554 241.197 77.124z" />
<glyph unicode="&#xe97d;" horiz-adv-x="2199" d="M2091.601 36.082c0 36.373-92.207 65.872-205.977 65.872-113.729 0-205.977-29.499-205.977-65.872s92.247-65.832 205.977-65.832c113.77 0 205.977 29.458 205.977 65.832z" />
<glyph unicode="&#xe97e;" horiz-adv-x="2199" d="M2083.898 36.082c0 35.029-88.77 63.416-198.273 63.416-109.463 0-198.233-28.397-198.233-63.416 0-34.988 88.77-63.385 198.233-63.385 109.504 0 198.273 28.397 198.273 63.385z" />
<glyph unicode="&#xe97f;" horiz-adv-x="2199" d="M2076.195 36.082c0 33.684-85.302 60.929-190.58 60.929-105.197 0-190.54-27.245-190.54-60.929 0-33.644 85.332-60.929 190.54-60.929 105.288 0 190.58 27.285 190.58 60.929z" />
<glyph unicode="&#xe980;" horiz-adv-x="2199" d="M2068.461 36.082c0 32.299-81.825 58.482-182.837 58.482-100.972 0-182.837-26.183-182.837-58.482 0-32.259 81.865-58.442 182.837-58.442 101.012 0 182.837 26.183 182.837 58.442z" />
<glyph unicode="&#xe981;" horiz-adv-x="2199" d="M2060.758 36.082c0 30.924-78.387 55.995-175.133 55.995-96.705 0-175.093-25.071-175.093-55.995s78.387-55.995 175.093-55.995c96.746 0 175.133 25.071 175.133 55.995z" />
<glyph unicode="&#xe982;" horiz-adv-x="2199" d="M2053.065 36.082c0-29.574-74.956-53.549-167.42-53.549s-167.42 23.975-167.42 53.549c0 29.574 74.956 53.549 167.42 53.549s167.42-23.975 167.42-53.549z" />
<glyph unicode="&#xe983;" horiz-adv-x="2199" d="M2045.361 36.082c0 28.235-71.513 51.062-159.737 51.062-88.183 0-159.696-22.827-159.696-51.062 0-28.195 71.513-51.062 159.696-51.062 88.214 0 159.737 22.867 159.737 51.062z" />
<glyph unicode="&#xe984;" horiz-adv-x="2199" d="M2037.658 36.082c0 26.85-68.076 48.616-152.034 48.616-83.917 0-151.953-21.755-151.953-48.616 0-26.81 68.036-48.616 151.953-48.616 83.958 0 152.034 21.806 152.034 48.616z" />
<glyph unicode="&#xe985;" horiz-adv-x="2199" d="M2029.914 36.082c0 25.475-64.608 46.159-144.29 46.159-79.651 0-144.26-20.694-144.26-46.159s64.608-46.129 144.26-46.129c79.692 0 144.29 20.653 144.29 46.129z" />
<glyph unicode="&#xe986;" horiz-adv-x="2199" d="M2026.326 36.082c0-24.84-62.985-44.976-140.681-44.976s-140.681 20.137-140.681 44.976c0 24.84 62.985 44.976 140.681 44.976s140.681-20.137 140.681-44.976z" />
<glyph unicode="&#xe987;" horiz-adv-x="2199" d="M2022.727 36.082c0 24.212-61.363 43.834-137.112 43.834-75.658 0-137.031-19.622-137.031-43.834s61.363-43.793 137.031-43.793c75.749 0 137.112 19.582 137.112 43.793z" />
<glyph unicode="&#xe988;" horiz-adv-x="2199" d="M2019.098 36.082c0-23.578-59.749-42.692-133.453-42.692s-133.453 19.114-133.453 42.692c0 23.578 59.749 42.692 133.453 42.692s133.453-19.114 133.453-42.692z" />
<glyph unicode="&#xe989;" horiz-adv-x="2199" d="M2015.509 36.082c0-22.941-58.142-41.539-129.864-41.539s-129.864 18.598-129.864 41.539c0 22.941 58.142 41.539 129.864 41.539s129.864-18.598 129.864-41.539z" />
<glyph unicode="&#xe98a;" horiz-adv-x="2199" d="M2011.91 36.082c0 22.311-56.551 40.397-126.285 40.397-69.704 0-126.204-18.086-126.204-40.397 0-22.271 56.511-40.356 126.204-40.356 69.734 0 126.285 18.086 126.285 40.356z" />
<glyph unicode="&#xe98b;" horiz-adv-x="2199" d="M2008.281 36.082c0 21.684-54.893 39.214-122.656 39.214-67.722 0-122.616-17.53-122.616-39.214 0-21.644 54.893-39.214 122.616-39.214 67.763 0 122.656 17.57 122.656 39.214z" />
<glyph unicode="&#xe98c;" horiz-adv-x="2199" d="M2004.682 36.082c0 21.048-53.306 38.072-119.057 38.072-65.71 0-119.017-17.024-119.017-38.072 0-21.007 53.306-38.031 119.017-38.031 65.751 0 119.057 17.024 119.057 38.031z" />
<glyph unicode="&#xe98d;" horiz-adv-x="2199" d="M2001.093 36.082c0 20.421-51.689 36.919-115.468 36.919-63.739 0-115.387-16.508-115.387-36.919 0-20.38 51.648-36.919 115.387-36.919 63.779 0 115.468 16.539 115.468 36.919z" />
<glyph unicode="&#xe98e;" horiz-adv-x="2199" d="M1997.464 36.082c0-19.759-50.063-35.777-111.819-35.777s-111.819 16.018-111.819 35.777c0 19.759 50.063 35.777 111.819 35.777s111.819-16.018 111.819-35.777z" />
<glyph unicode="&#xe98f;" horiz-adv-x="2199" d="M1993.865 36.082c0-19.128-48.452-34.634-108.22-34.634s-108.22 15.506-108.22 34.634c0 19.128 48.452 34.634 108.22 34.634s108.22-15.506 108.22-34.634z" />
<glyph unicode="&#xe990;" horiz-adv-x="2199" d="M1990.266 36.082c0 18.48-46.836 33.452-104.651 33.452-57.734 0-104.611-14.962-104.611-33.452 0-18.439 46.877-33.452 104.611-33.452 57.825 0 104.651 15.012 104.651 33.452z" />
<glyph unicode="&#xe991;" horiz-adv-x="2199" d="M1986.637 36.082c0 17.853-45.219 32.299-101.012 32.299-55.763 0-100.972-14.456-100.972-32.299 0-17.813 45.219-32.259 100.972-32.259 55.793 0 101.012 14.446 101.012 32.259z" />
<glyph unicode="&#xe992;" horiz-adv-x="2199" d="M1983.048 36.082c0 17.216-43.601 31.157-97.423 31.157-53.781 0-97.383-13.941-97.383-31.157 0-17.176 43.601-31.157 97.383-31.157 53.822 0 97.423 13.981 97.423 31.157z" />
<glyph unicode="&#xe993;" horiz-adv-x="2199" d="M1979.449 36.082c0 16.589-42.014 30.014-93.824 30.014-51.77 0-93.784-13.425-93.784-30.014 0-16.549 42.014-29.974 93.784-29.974 51.81 0 93.824 13.425 93.824 29.974z" />
<glyph unicode="&#xe994;" horiz-adv-x="2199" d="M1977.235 36.082c0 16.195-41.034 29.297-91.62 29.297-50.546 0-91.58-13.112-91.58-29.297 0-16.155 41.034-29.266 91.58-29.266 50.597 0 91.62 13.112 91.62 29.266z" />
<glyph unicode="&#xe995;" horiz-adv-x="2199" d="M1975.031 36.082c0 15.801-40.043 28.589-89.407 28.589s-89.366-12.798-89.366-28.589c0-15.76 40.002-28.549 89.366-28.549s89.407 12.788 89.407 28.549z" />
<glyph unicode="&#xe996;" horiz-adv-x="2199" d="M1972.817 36.082c0 15.396-39.012 27.881-87.193 27.881-48.1 0-87.152-12.475-87.152-27.881 0-15.366 39.052-27.841 87.152-27.841 48.181 0 87.193 12.475 87.193 27.841z" />
<glyph unicode="&#xe997;" horiz-adv-x="2199" d="M1970.603 36.082c0 15.002-38.072 27.174-84.979 27.174s-84.898-12.161-84.898-27.174c0-14.962 37.991-27.133 84.898-27.133s84.979 12.161 84.979 27.133z" />
<glyph unicode="&#xe998;" horiz-adv-x="2199" d="M1968.389 36.082c0 14.608-37.040 26.456-82.775 26.456-45.654 0-82.694-11.848-82.694-26.456s37.040-26.456 82.694-26.456c45.734 0 82.775 11.848 82.775 26.456z" />
<glyph unicode="&#xe999;" horiz-adv-x="2199" d="M1966.186 36.082c0 14.214-36.050 25.748-80.561 25.748-44.461 0-80.48-11.535-80.48-25.748s36.019-25.748 80.48-25.748c44.501 0 80.561 11.535 80.561 25.748z" />
<glyph unicode="&#xe99a;" horiz-adv-x="2199" d="M1963.972 36.082c0 13.86-35.069 25.041-78.347 25.041-43.237 0-78.266-11.171-78.266-25.041 0-13.819 35.029-25.041 78.266-25.041 43.278 0 78.347 11.221 78.347 25.041z" />
<glyph unicode="&#xe99b;" horiz-adv-x="2199" d="M1961.758 36.082c0 13.466-34.078 24.363-76.133 24.363-42.014 0-76.052-10.898-76.052-24.363 0-13.425 34.038-24.323 76.052-24.323 42.055 0 76.133 10.898 76.133 24.323z" />
<glyph unicode="&#xe99c;" horiz-adv-x="2199" d="M1959.544 36.082c0 13.071-33.088 23.656-73.929 23.656-40.791 0-73.848-10.584-73.848-23.656 0-13.031 33.057-23.615 73.848-23.615 40.842 0 73.929 10.584 73.929 23.615z" />
<glyph unicode="&#xe99d;" horiz-adv-x="2199" d="M1957.34 36.082c0 12.677-32.107 22.948-71.715 22.948-39.568 0-71.634-10.271-71.634-22.948 0-12.637 32.067-22.908 71.634-22.908 39.608 0 71.715 10.271 71.715 22.908z" />
<glyph unicode="&#xe99e;" horiz-adv-x="2199" d="M1955.126 36.082c0 12.283-31.116 22.23-69.501 22.23-38.345 0-69.42-9.948-69.42-22.23 0-12.242 31.076-22.19 69.42-22.19 38.385 0 69.501 9.948 69.501 22.19z" />
<glyph unicode="&#xe99f;" horiz-adv-x="2199" d="M1952.912 36.082c0 11.889-30.126 21.523-67.287 21.523-37.121 0-67.207-9.634-67.207-21.523s30.095-21.482 67.207-21.482c37.162 0 67.287 9.594 67.287 21.482z" />
<glyph unicode="&#xe9a0;" horiz-adv-x="2199" d="M1950.698 36.082c0 11.494-29.145 20.815-65.084 20.815-35.898 0-65.003-9.321-65.003-20.815s29.105-20.775 65.003-20.775c35.949 0 65.084 9.28 65.084 20.775z" />
<glyph unicode="&#xe9a1;" horiz-adv-x="2199" d="M1948.454 36.082c0-11.099-28.121-20.097-62.809-20.097s-62.809 8.998-62.809 20.097c0 11.099 28.121 20.097 62.809 20.097s62.809-8.998 62.809-20.097z" />
<glyph unicode="&#xe9a2;" horiz-adv-x="2199" d="M1946.24 36.082c0-10.709-27.129-19.39-60.595-19.39s-60.595 8.681-60.595 19.39c0 10.709 27.129 19.39 60.595 19.39s60.595-8.681 60.595-19.39z" />
<glyph unicode="&#xe9a3;" horiz-adv-x="2199" d="M1944.026 36.082c0-10.318-26.138-18.682-58.381-18.682s-58.381 8.364-58.381 18.682c0 10.318 26.138 18.682 58.381 18.682s58.381-8.364 58.381-18.682z" />
<glyph unicode="&#xe9a4;" horiz-adv-x="2199" d="M1941.822 36.082c0-9.921-25.151-17.964-56.177-17.964s-56.177 8.043-56.177 17.964c0 9.921 25.151 17.964 56.177 17.964s56.177-8.043 56.177-17.964z" />
<glyph unicode="&#xe9a5;" horiz-adv-x="2199" d="M1939.608 36.082c0-9.531-24.16-17.257-53.963-17.257s-53.963 7.726-53.963 17.257c0 9.531 24.16 17.257 53.963 17.257s53.963-7.726 53.963-17.257z" />
<glyph unicode="&#xe9a6;" horiz-adv-x="2199" d="M1937.394 36.082c0-9.14-23.169-16.549-51.749-16.549s-51.749 7.409-51.749 16.549c0 9.14 23.169 16.549 51.749 16.549s51.749-7.409 51.749-16.549z" />
<glyph unicode="&#xe9a7;" horiz-adv-x="2199" d="M1935.18 36.082c0 8.765-22.149 15.831-49.556 15.831-27.325 0-49.515-7.066-49.515-15.831 0-8.724 22.19-15.831 49.515-15.831 27.406 0 49.556 7.107 49.556 15.831z" />
<glyph unicode="&#xe9a8;" horiz-adv-x="2199" d="M1933.684 36.082c0 8.492-21.523 15.366-48.060 15.366-26.496 0-48.019-6.874-48.019-15.366s21.523-15.366 48.019-15.366c26.537 0 48.060 6.874 48.060 15.366z" />
<glyph unicode="&#xe9a9;" horiz-adv-x="2199" d="M1932.148 36.082c0-8.224-20.82-14.891-46.503-14.891s-46.503 6.667-46.503 14.891c0 8.224 20.82 14.891 46.503 14.891s46.503-6.667 46.503-14.891z" />
<glyph unicode="&#xe9aa;" horiz-adv-x="2199" d="M1930.641 36.082c0 7.936-20.138 14.416-45.017 14.416-24.798 0-44.936-6.48-44.936-14.416s20.138-14.375 44.936-14.375c24.879 0 45.017 6.44 45.017 14.375z" />
<glyph unicode="&#xe9ab;" horiz-adv-x="2199" d="M1929.105 36.082c0 7.703-19.47 13.9-43.48 13.9-23.969 0-43.44-6.197-43.44-13.9 0-7.663 19.47-13.9 43.44-13.9 24.010 0 43.48 6.237 43.48 13.9z" />
<glyph unicode="&#xe9ac;" horiz-adv-x="2199" d="M1927.558 36.082c0 7.42-18.753 13.425-41.933 13.425-23.14 0-41.933-6.005-41.933-13.425 0-7.38 18.793-13.385 41.933-13.385 23.181 0 41.933 5.995 41.933 13.385z" />
<glyph unicode="&#xe9ad;" horiz-adv-x="2199" d="M1926.062 36.082c0 7.147-18.086 12.91-40.437 12.91-22.311 0-40.397-5.762-40.397-12.91s18.086-12.91 40.397-12.91c22.352 0 40.437 5.762 40.437 12.91z" />
<glyph unicode="&#xe9ae;" horiz-adv-x="2199" d="M1924.525 36.082c0-6.867-17.407-12.434-38.88-12.434s-38.88 5.567-38.88 12.434c0 6.867 17.407 12.434 38.88 12.434s38.88-5.567 38.88-12.434z" />
<glyph unicode="&#xe9af;" horiz-adv-x="2199" d="M1923.019 36.082c0 6.591-16.741 11.969-37.394 11.969-20.613 0-37.354-5.368-37.354-11.969s16.741-11.929 37.354-11.929c20.653 0 37.394 5.338 37.394 11.929z" />
<glyph unicode="&#xe9b0;" horiz-adv-x="2199" d="M1921.482 36.082c0 6.359-16.033 11.494-35.858 11.494-19.784 0-35.817-5.136-35.817-11.494 0-6.318 16.033-11.454 35.817-11.454 19.824 0 35.858 5.136 35.858 11.454z" />
<glyph unicode="&#xe9b1;" horiz-adv-x="2199" d="M1919.976 36.082c0-6.063-15.371-10.979-34.331-10.979s-34.331 4.915-34.331 10.979c0 6.063 15.371 10.979 34.331 10.979s34.331-4.915 34.331-10.979z" />
<glyph unicode="&#xe9b2;" horiz-adv-x="2199" d="M1918.439 36.082c0-5.801-14.683-10.504-32.795-10.504s-32.795 4.703-32.795 10.504c0 5.801 14.683 10.504 32.795 10.504s32.795-4.703 32.795-10.504z" />
<glyph unicode="&#xe9b3;" horiz-adv-x="2199" d="M1916.943 36.082c0-5.516-14.013-9.988-31.298-9.988s-31.298 4.472-31.298 9.988c0 5.516 14.013 9.988 31.298 9.988s31.298-4.472 31.298-9.988z" />
<glyph unicode="&#xe9b4;" horiz-adv-x="2199" d="M1915.396 36.082c0 5.257-13.304 9.513-29.772 9.513-16.428 0-29.731-4.266-29.731-9.513s13.304-9.513 29.731-9.513c16.468 0 29.772 4.256 29.772 9.513z" />
<glyph unicode="&#xe9b5;" horiz-adv-x="2199" d="M1913.9 36.082c0 5.014-12.637 9.048-28.276 9.048-15.558 0-28.195-4.023-28.195-9.048 0-4.974 12.637-9.048 28.195-9.048 15.639 0 28.276 4.074 28.276 9.048z" />
<glyph unicode="&#xe9b6;" horiz-adv-x="2199" d="M1912.354 36.082c0 4.741-11.969 8.573-26.739 8.573-14.729 0-26.699-3.831-26.699-8.573 0-4.701 11.969-8.532 26.699-8.532 14.78 0 26.739 3.831 26.739 8.532z" />
<glyph unicode="&#xe9b7;" horiz-adv-x="2199" d="M1910.817 36.082c0-4.45-11.279-8.057-25.192-8.057s-25.192 3.607-25.192 8.057c0 4.45 11.279 8.057 25.192 8.057s25.192-3.607 25.192-8.057z" />
<glyph unicode="&#xe9b8;" horiz-adv-x="2199" d="M1909.321 36.082c0 4.185-10.584 7.582-23.696 7.582-13.031 0-23.656-3.397-23.656-7.582 0-4.145 10.625-7.542 23.656-7.542 13.112 0 23.696 3.397 23.696 7.542z" />
<glyph unicode="&#xe9b9;" horiz-adv-x="2199" d="M1907.815 36.082c0 3.912-9.948 7.066-22.19 7.066-12.202 0-22.119-3.164-22.119-7.066s9.907-7.066 22.119-7.066c12.242 0 22.19 3.154 22.19 7.066z" />
<glyph unicode="&#xe9ba;" horiz-adv-x="2199" d="M1906.278 36.082c0 3.67-9.24 6.591-20.653 6.591-11.373 0-20.613-2.922-20.613-6.591 0-3.629 9.24-6.591 20.613-6.591 11.413 0 20.653 2.962 20.653 6.591z" />
<glyph unicode="&#xe9bb;" horiz-adv-x="2199" d="M1904.741 36.082c0 3.397-8.532 6.116-19.117 6.116-10.544 0-19.076-2.73-19.076-6.116 0-3.356 8.532-6.116 19.076-6.116 10.584-0.010 19.117 2.76 19.117 6.116z" />
<glyph unicode="&#xe9bc;" horiz-adv-x="2199" d="M1903.235 36.082c0-3.121-7.875-5.651-17.59-5.651s-17.59 2.53-17.59 5.651c0 3.121 7.875 5.651 17.59 5.651s17.59-2.53 17.59-5.651z" />
<glyph unicode="&#xe9bd;" horiz-adv-x="2199" d="M1901.698 36.082c0 2.841-7.188 5.136-16.074 5.136-8.846 0-16.033-2.295-16.033-5.136 0-2.8 7.188-5.136 16.033-5.136 8.886 0 16.074 2.335 16.074 5.136z" />
<glyph unicode="&#xe9be;" horiz-adv-x="2199" d="M1900.192 36.082c0-2.574-6.513-4.66-14.547-4.66s-14.547 2.087-14.547 4.66c0 2.574 6.513 4.66 14.547 4.66s14.547-2.087 14.547-4.66z" />
<glyph unicode="&#xe9bf;" horiz-adv-x="2199" d="M1898.655 36.082c0-2.311-5.825-4.185-13.011-4.185s-13.011 1.874-13.011 4.185c0 2.311 5.825 4.185 13.011 4.185s13.011-1.874 13.011-4.185z" />
<glyph unicode="&#xe9c0;" horiz-adv-x="2199" d="M1897.159 36.082c0 2.052-5.176 3.67-11.535 3.67-6.318 0-11.454-1.617-11.454-3.67 0-2.012 5.136-3.67 11.454-3.67 6.359 0 11.535 1.658 11.535 3.67z" />
<glyph unicode="&#xe9c1;" horiz-adv-x="2199" d="M1895.613 36.082c0 1.779-4.458 3.195-9.988 3.195-5.489 0-9.948-1.425-9.948-3.195 0-1.739 4.458-3.195 9.948-3.195 5.53 0 9.988 1.456 9.988 3.195z" />
<glyph unicode="&#xe9c2;" horiz-adv-x="2199" d="M1894.197 36.082c0 1.537-3.831 2.73-8.573 2.73-4.701 0-8.532-1.183-8.532-2.73 0-1.496 3.831-2.73 8.532-2.73 4.741 0 8.573 1.223 8.573 2.73z" />
<glyph unicode="&#xe9c3;" horiz-adv-x="2199" d="M1892.772 36.082c0 1.264-3.195 2.295-7.147 2.295-3.912 0-7.107-1.031-7.107-2.295 0-1.223 3.195-2.254 7.107-2.254 3.953 0 7.147 1.031 7.147 2.254z" />
<glyph unicode="&#xe9c4;" horiz-adv-x="2199" d="M1891.346 36.082c0 1.031-2.568 1.86-5.722 1.86-3.124 0-5.692-0.829-5.692-1.86 0-0.991 2.568-1.82 5.692-1.82 3.154 0 5.722 0.829 5.722 1.82z" />
<glyph unicode="&#xe9c5;" horiz-adv-x="2199" d="M1889.931 36.082c0 0.748-1.931 1.385-4.307 1.385-2.325 0-4.266-0.637-4.266-1.385s1.931-1.345 4.266-1.345c2.366 0 4.307 0.596 4.307 1.345z" />
<glyph unicode="&#xe9c6;" horiz-adv-x="2199" d="M1888.506 36.082c0 0.516-1.304 0.91-2.881 0.91-1.537 0-2.841-0.394-2.841-0.91s1.304-0.91 2.841-0.91c1.577 0 2.881 0.394 2.881 0.91z" />
<glyph unicode="&#xe9c7;" horiz-adv-x="2199" d="M1887.050 36.082c0-0.262-0.638-0.475-1.425-0.475s-1.425 0.213-1.425 0.475c0 0.262 0.638 0.475 1.425 0.475s1.425-0.213 1.425-0.475z" />
<glyph unicode="&#xe9c8;" horiz-adv-x="2199" d="M249.265 791.165h51.193c21.907-8.118 46.007-8.118 67.914 0h51.214c59.908 0.789 109.211-46.948 110.373-106.845v-181.725c-0.354-39.436-22.443-75.456-57.431-93.652v250.356c-0.061 3.124-2.628 5.601-5.742 5.56v0c-3.114 0.040-5.681-2.446-5.742-5.56l-1.132-279.926-13.567-253.753c-2.436-45.492-37.263-85.808-83.614-85.818h-19.137v317.088c-0.121 4.974-4.205 8.927-9.179 8.886v0c-4.974 0.040-9.058-3.912-9.179-8.886v-317.088h-18.904c-46.503 0-81.39 40.225-83.826 85.838l-13.708 256.442c-0.839 15.73-0.687 30.186-0.687 46.007v231.21c-0.061 3.124-2.618 5.601-5.742 5.56v0c-3.114 0.040-5.681-2.446-5.742-5.56v-250.508c-35.15 18.156-57.37 54.267-57.724 93.824v181.725c1.163 59.898 50.466 107.623 110.373 106.845l-0.010-0.020zM334.425 959.99c46.058-1.496 82.178-40.043 80.682-86.111s-40.043-82.189-86.111-80.692c-45.007 1.466-80.733 38.365-80.733 83.402 0.778 46.816 39.345 84.15 86.161 83.402z" />
<glyph unicode="&#xe9c9;" horiz-adv-x="2199" d="M772.087 791.165h51.204c21.907-8.118 46.007-8.118 67.914 0h51.214c59.908 0.789 109.211-46.948 110.373-106.845v-181.725c-0.364-39.436-22.443-75.456-57.431-93.652v250.356c-0.061 3.124-2.628 5.601-5.742 5.56v0c-3.124 0.040-5.681-2.446-5.742-5.56l-1.132-279.926-13.567-253.753c-2.436-45.492-37.273-85.808-83.614-85.818h-19.117v317.088c-0.121 4.974-4.205 8.927-9.179 8.886v0c-4.974 0.040-9.058-3.912-9.179-8.886v-317.088h-18.904c-46.503 0-81.4 40.225-83.836 85.838l-13.718 256.442c-0.839 15.73-0.687 30.186-0.687 46.007v231.21c-0.061 3.124-2.618 5.601-5.742 5.56v0c-3.114 0.040-5.681-2.446-5.742-5.56v-250.508c-35.15 18.156-57.37 54.267-57.724 93.824v181.725c1.163 59.898 50.466 107.623 110.373 106.845l-0.020-0.020zM857.247 959.99c46.058-1.496 82.189-40.043 80.692-86.111s-40.043-82.189-86.111-80.692c-45.007 1.466-80.733 38.365-80.733 83.402 0.768 46.816 39.335 84.15 86.151 83.402z" />
<glyph unicode="&#xe9ca;" horiz-adv-x="2199" d="M1300.135 791.165h51.214c21.907-8.118 46.007-8.118 67.914 0h51.204c59.908 0.789 109.211-46.948 110.373-106.845v-181.725c-0.354-39.436-22.453-75.466-57.441-93.652v250.356c-0.061 3.124-2.628 5.601-5.742 5.56v0c-3.124 0.040-5.681-2.446-5.732-5.56l-1.132-279.926-13.567-253.753c-2.426-45.492-37.263-85.808-83.614-85.818h-19.117v317.088c-0.121 4.974-4.205 8.927-9.179 8.886v0c-4.974 0.040-9.058-3.912-9.179-8.886v-317.088h-18.894c-46.503 0-81.39 40.225-83.836 85.838l-13.718 256.442c-0.839 15.73-0.687 30.186-0.687 46.007v231.21c-0.061 3.124-2.628 5.601-5.742 5.56v0c-3.114 0.040-5.671-2.446-5.732-5.56v-250.508c-35.16 18.156-57.37 54.267-57.724 93.824v181.725c1.163 59.898 50.466 107.623 110.363 106.845l-0.030-0.020zM1385.316 959.99c46.048-1.496 82.178-40.043 80.672-86.111-1.486-46.058-40.043-82.189-86.111-80.692-44.996 1.466-80.723 38.365-80.733 83.402 0.768 46.816 39.345 84.15 86.172 83.402z" />
<glyph unicode="&#xe9cb;" horiz-adv-x="2199" d="M1824.676 791.165h51.214c21.917-8.118 46.007-8.118 67.924 0h51.193c59.908 0.778 109.211-46.948 110.373-106.845v-181.725c-0.354-39.436-22.453-75.456-57.441-93.652v250.356c-0.061 3.124-2.628 5.601-5.742 5.56v0c-3.114 0.040-5.671-2.446-5.732-5.56l-1.132-279.926-13.567-253.753c-2.426-45.492-37.263-85.808-83.614-85.818h-19.127v317.088c-0.111 4.964-4.195 8.927-9.169 8.886v0c-4.974 0.040-9.058-3.912-9.179-8.886v-317.088h-18.894c-46.513 0-81.41 40.225-83.836 85.838l-13.708 256.442c-0.839 15.73-0.698 30.186-0.698 46.007v231.21c-0.061 3.124-2.628 5.601-5.742 5.56v0c-3.124 0.040-5.681-2.446-5.742-5.56v-250.508c-35.15 18.156-57.36 54.267-57.714 93.824v181.725c1.163 59.898 50.455 107.623 110.353 106.845v-0.020zM1909.846 959.99c46.068-1.496 82.178-40.043 80.682-86.111s-40.053-82.189-86.111-80.692c-45.007 1.466-80.723 38.365-80.723 83.402 0.778 46.816 39.345 84.15 86.151 83.402z" />
<glyph unicode="&#xe9cc;" d="M1024 448c0-282.77-229.23-512-512-512s-512 229.23-512 512c0 282.77 229.23 512 512 512s512-229.23 512-512z" />
<glyph unicode="&#xe9cd;" d="M512-64c-282.304 0-512 229.696-512 512s229.696 512 512 512 512-229.696 512-512-229.696-512-512-512zM512 896c-247.040 0-448-200.96-448-448 0-246.976 200.96-448 448-448 246.976 0 448 201.024 448 448 0 247.040-201.024 448-448 448z" />
<glyph unicode="&#xe9ce;" glyph-name="white-Circle" d="M1024 448c0-282.77-229.23-512-512-512s-512 229.23-512 512c0 282.77 229.23 512 512 512s512-229.23 512-512z" />
<glyph unicode="&#xe9cf;" glyph-name="white-line" horiz-adv-x="8" d="M0 960h7.938v-1024h-7.938v1024z" />
<glyph unicode="&#xe9d0;" glyph-name="white-line_MV" horiz-adv-x="9" d="M0 960h9.281v-1024h-9.281v1024z" />
<glyph unicode="&#xe9d1;" glyph-name="white-side-arrow_right" horiz-adv-x="695" d="M162.531-16.49c-30.345 0-60.537 11.878-83.143 35.556-43.832 45.978-42.146 118.699 3.755 162.531l278.931 266.364-278.931 266.441c-45.901 43.755-47.587 116.553-3.755 162.455 43.832 45.978 116.63 47.587 162.531 3.678l452.957-432.65-452.957-432.65c-22.299-21.15-50.882-31.725-79.388-31.725z" />
<glyph unicode="&#xe9d2;" glyph-name="white-up-arrow_thin" horiz-adv-x="1760" d="M104.915-33.282c-18.475 0-36.876 6.826-51.27 20.553-29.605 28.269-30.718 75.236-2.374 104.841l828.861 867.888 829.157-867.814c28.343-29.531 27.23-76.572-2.374-104.841-29.605-28.343-76.572-27.305-104.841 2.374l-721.942 755.405-721.571-755.405c-14.543-15.285-34.131-23.001-53.645-23.001z" />
</font>
</defs>
</svg>
