<?xml version="1.0" standalone="no"?> <!DOCTYPE svg PUBLIC "-//W3C//DTD SVG 1.0//EN" "http://www.w3.org/TR/2001/REC-SVG-20010904/DTD/svg10.dtd" > <svg xmlns="http://www.w3.org/2000/svg" width="100%" height="100%">
<defs >
<font horiz-adv-x="821" ><font-face
    font-family="Palatino Linotype"
    units-per-em="2048"
    panose-1="2 4 5 2 5 3 5 10 3 4"
    ascent="1499"
    descent="-582"
    alphabetic="0" />
<missing-glyph horiz-adv-x="1670" d="M1672 818L1668 746Q1604 722 1461 665Q1387 636 1222 566Q1141 522 952 431Q900 398 799 341Q792 338 898 228L772 107L871 102L840 21H804L822 71L740 80L686 53L641 -19L610 -6L659 62L704 98L614 102L565 48L533 57L619
143L722 134L831 215L754 332Q720 316 695 323Q717 289 738 256L553 184L607 168L533 114L508 119L551 159L524 173L445 152L429 114L402 110L429 168L483 184L418 209L393 170L371 179L413 233L524 204L684 267L657 337Q621 363 542 422Q513 445 470 498Q430 546
394 571Q315 623 223 647Q142 668 -7 656L20 692L277 769Q381 801 565 859L601 845Q611 827 637 787Q662 754 700 732T777 688Q802 672 849 647Q1045 633 1155 652Q1181 656 1375 719Q1483 754 1672 818ZM894 483L867 494L813 456L748 501L710 573L676 560L730
470L824 425L894 483ZM529 701Q529 742 486 742Q443 742 443 701Q443 661 486 661Q529 661 529 701ZM505 692Q505 674 488 674Q471 674 471 692Q471 710 488 710Q505 710 505 692Z" />
<glyph unicode=" " glyph-name="null" horiz-adv-x="512" />
<glyph unicode="!" glyph-name="null" horiz-adv-x="682" d="M286 376L273 386Q301 553 337 832T399 1379Q490 1398 572 1429L594 1411Q451 868 347 410L286 376ZM157 90Q157 145 192 185T276 225Q322 225 345 199T369 128Q366 64 341 24T249 -18Q206 -18 182 12T157 90Z" />
<glyph unicode="&quot;" glyph-name="null" horiz-adv-x="1024" d="M345 1042H284L409 1416Q427 1469 451 1485T501 1501Q540 1501 564 1475T589 1419Q589 1384 560 1344L345 1042ZM690 1042H628L754 1416Q771 1469 795 1485T846 1501Q886 1501 910 1475T934 1419Q934
1385 905 1344L690 1042Z" />
<glyph unicode="#" glyph-name="null" horiz-adv-x="980" d="M172 0L240 381H93L117 515H265L341 937H193L217 1071H365L425 1405H499L439 1071H666L726 1405H801L741 1071H888L864 937H717L641 515H788L764 381H617L548 0H474L542 381H315L246 0H172ZM339 515H566L642
937H415L339 515Z" />
<glyph unicode="$" glyph-name="null" horiz-adv-x="1024" d="M331 -240L324 -231Q347 -133 364 -36Q166 -31 46 49L43 62Q72 123 89 336L99 344L133 343L142 334Q142 230 148 165Q231 66 378 56L467 610Q277 654 219 723T161 900Q161 1047 268 1176T584 1351L601
1478L610 1487L668 1486L675 1478Q664 1414 656 1356L680 1357Q824 1357 932 1285L935 1274Q909 1195 883 1039L875 1031L841 1032L834 1041L835 1183Q751 1262 641 1265L557 744Q758 708 828 639T898 453Q898 277 765 135T432 -32Q415 -132 403 -232L394 -240H331ZM571
1266Q443 1266 371 1174T298 958Q298 808 490 756L571 1266ZM446 54Q571 54 658 151T746 382Q746 461 711 515T533 599L446 54Z" />
<glyph unicode="%" glyph-name="null" horiz-adv-x="1821" d="M1372 1466L491 -59L480 -67H405L400 -59L1279 1467L1290 1475H1367L1372 1466ZM100 1043Q100 1135 142 1224T277 1373T477 1432Q604 1432 687 1349T770 1144Q770 1041 718 947T575 802T396 751Q311
751 240 795T135 908T100 1043ZM247 1006Q247 895 292 847T395 799Q494 799 559 924T625 1194Q625 1279 589 1331T485 1384Q438 1384 395 1358T315 1270T263 1134T247 1006ZM1015 261Q1015 356 1060 446T1196 593T1392 650Q1516 650 1600 569T1685 359Q1685 259
1633 165T1490 20T1312 -31Q1225 -31 1154 14T1049 127T1015 261ZM1163 223Q1163 114 1207 65T1311 16Q1354 16 1391 42T1463 119T1518 254T1540 412Q1540 497 1504 549T1400 602Q1350 602 1306 574T1229 485T1179 353T1163 223Z" />
<glyph unicode="&amp;" glyph-name="null" horiz-adv-x="1593" d="M1462 1063Q1508 1047 1535 1007T1562 909Q1562 859 1542 812T1491 734T1406 683T1305 654T1149 632Q1228 611 1261 564T1294 460Q1294 348 1203 239T948 50T595 -31Q374 -31 238 72T102 356Q102
460 145 542T275 680T527 793Q455 825 426 856T383 926T369 1002Q369 1145 531 1276T853 1407Q968 1407 1043 1358L1047 1346L1000 1124L990 1116L961 1115L952 1123L950 1239Q881 1302 771 1302Q662 1302 587 1236T512 1064Q512 963 583 907T759 851Q768 851 785
852L792 842L756 750Q707 752 677 752Q564 752 473 713T326 585T271 398Q271 258 380 161T675 64Q820 64 926 113T1091 244T1150 411Q1150 494 1101 541T975 589Q928 589 894 570T846 526T821 454L814 427L804 420L774 424L767 432L782 628Q816 674 898 698T1148
745Q1277 762 1348 780T1456 840T1493 933Q1493 997 1425 1027V1040L1451 1061L1462 1063Z" />
<glyph unicode="&apos;" glyph-name="null" horiz-adv-x="682" d="M347 1042H286L411 1416Q429 1469 453 1485T503 1501Q542 1501 566 1475T591 1419Q591 1384 562 1344L347 1042Z" />
<glyph unicode="(" glyph-name="null" horiz-adv-x="682" d="M363 -209Q265 -75 189 114T113 526Q113 817 262 1061T627 1486H639L671 1452V1441Q451 1206 355 969T258 424Q258 297 276 193T324 4T405 -180L402 -191L374 -211L363 -209Z" />
<glyph unicode=")" glyph-name="null" horiz-adv-x="682" d="M331 1484Q438 1334 509 1150T581 750Q581 461 433 217T66 -211H55L23 -177V-166Q236 60 336 299T436 851Q436 1014 404 1153T289 1455L291 1466L319 1486L331 1484Z" />
<glyph unicode="*" glyph-name="null" horiz-adv-x="797" d="M214 849Q200 890 162 964L170 978Q196 990 279 1024T429 1091Q385 1114 293 1158T167 1217L159 1237Q160 1238 191 1293L225 1351L246 1350Q346 1239 457 1137Q474 1231 483 1295T502 1424L520 1435Q585
1414 646 1400L649 1382Q529 1168 505 1117Q533 1120 789 1165L801 1158Q803 1121 817 1039L802 1028Q608 1057 508 1064Q542 992 576 935Q638 829 640 821L636 809Q534 760 516 747L501 758Q479 920 456 1045Q381 980 298 902L237 846L214 849Z" />
<glyph unicode="+" glyph-name="null" horiz-adv-x="1024" d="M994 581H565V152H459V581H30V683H459V1112H565V683H994V581Z" />
<glyph unicode="," glyph-name="null" horiz-adv-x="512" d="M-31 -299L-47 -280Q-1 -229 54 -112T145 182Q271 213 331 241L351 214Q308 112 209 -44T38 -273L-31 -299Z" />
<glyph unicode="-" glyph-name="null" horiz-adv-x="682" d="M38 445L80 563H624L582 445H38Z" />
<glyph unicode="." glyph-name="null" horiz-adv-x="512" d="M106 90Q106 145 141 185T225 225Q271 225 294 199T318 128Q318 70 285 26T198 -18Q155 -18 131 12T106 90Z" />
<glyph unicode="/" glyph-name="null" horiz-adv-x="607" d="M7 -17L509 1450L520 1457H608L613 1449L111 -17L100 -26H13L7 -17Z" />
<glyph unicode="0" glyph-name="null" horiz-adv-x="1024" d="M84 453Q84 683 152 922T350 1283T635 1404Q737 1404 816 1351T938 1199T982 926Q982 669 908 439T710 88T429 -32Q273 -32 179 89T84 453ZM236 349Q236 262 255 186T324 70T443 29Q525 29 589 91T710
300T796 664T827 1040Q827 1144 805 1207T733 1307T624 1344Q522 1344 439 1246T296 849T236 349Z" />
<glyph unicode="1" glyph-name="null" horiz-adv-x="1024" d="M139 -8L131 0L136 43L145 52Q170 55 217 59Q281 62 316 71Q366 84 383 123T419 264L586 1270Q429 1211 205 1104L192 1113L213 1233Q325 1253 544 1326Q625 1353 751 1411L780 1387Q735 1191 683
892L626 566Q598 407 584 303Q564 150 564 137Q564 93 597 78T741 56Q797 53 821 50L827 42L824 0L815 -8Q635 0 456 0Q232 0 139 -8Z" />
<glyph unicode="2" glyph-name="null" horiz-adv-x="1024" d="M12 -8L5 0L7 31Q438 479 567 680T696 1044Q696 1099 671 1154T590 1237T471 1266Q296 1266 182 1059L171 1055L142 1067L138 1079L257 1309Q377 1396 527 1396Q674 1396 771 1312T868 1078Q868 981
831 890T714 698T436 394L292 245Q208 153 197 143L201 130H601Q748 130 845 148L858 134L825 0L816 -8Q592 3 426 3L167 -3Q51 -5 12 -8Z" />
<glyph unicode="3" glyph-name="null" horiz-adv-x="1024" d="M6 56L60 334L70 342L103 337L109 327Q102 275 102 240Q102 145 171 90T346 34Q455 34 535 94T654 257T693 458Q693 534 660 595T562 688T420 719Q360 719 258 694L250 702L284 797Q363 792 381 792Q456
792 530 829T647 937T690 1087Q690 1168 639 1221T494 1274Q407 1274 355 1240T231 1113L220 1111L195 1128L193 1140L309 1334Q413 1396 547 1396Q688 1396 769 1322T850 1130Q850 1035 794 953T562 782V777Q695 758 781 683T867 462Q867 332 798 219T593 34T304
-37Q143 -37 6 56Z" />
<glyph unicode="4" glyph-name="null" horiz-adv-x="1024" d="M203 -8L195 0L200 44L209 52Q378 61 417 69Q444 75 458 100T494 236L524 388L138 387Q99 388 7 385L-1 394L3 442Q122 625 370 958Q597 1261 695 1378Q818 1406 832 1411L848 1401L821 1265Q806 1190
787 1082L684 500Q892 500 942 507L951 494L920 389L910 381Q863 385 768 385Q703 385 665 386L643 249Q629 162 629 124Q629 73 686 65Q708 61 787 56Q825 54 864 49L870 41L866 0L857 -8Q736 0 531 0Q429 0 203 -8ZM544 500L676 1242L668 1243Q549 1081 363 831Q274
703 141 513L148 504Q227 498 361 499L544 500Z" />
<glyph unicode="5" glyph-name="null" horiz-adv-x="1024" d="M10 68Q30 145 66 338L76 345L111 339L116 331Q110 303 110 271Q110 148 183 92T362 36Q468 36 548 98T668 276T709 496Q709 551 692 603T645 688T564 742T460 762Q412 762 366 747T290 711T213 643L169
664Q229 921 300 1359L316 1372Q543 1356 704 1356Q833 1356 965 1364L978 1346L906 1229Q793 1219 644 1219Q494 1219 362 1227L260 759Q379 853 536 853Q634 853 716 813T840 698T882 521Q882 411 836 300T716 123T544 10T324 -37Q136 -37 10 68Z" />
<glyph unicode="6" glyph-name="null" horiz-adv-x="1024" d="M901 1261L885 1259Q824 1295 760 1295Q585 1295 456 1128T253 615Q336 721 422 774T609 827Q690 827 755 792T856 687T892 520Q892 423 861 331T785 179T660 66T524 -13T401 -37Q257 -37 169 67T81
373Q81 559 144 759T335 1111T587 1330T831 1396Q879 1396 934 1377L901 1261ZM236 333Q236 194 300 126T458 58Q544 58 609 116T706 273T738 463Q738 581 678 648T527 715Q446 715 374 663T269 525T236 333Z" />
<glyph unicode="7" glyph-name="null" horiz-adv-x="1024" d="M99 -8L87 14Q135 92 197 185T499 648L777 1082Q816 1147 858 1220H378Q309 1220 164 1209L152 1219Q172 1304 180 1370L187 1378Q256 1371 460 1367T781 1363Q868 1363 991 1367L1000 1359L1001 1296Q878
1122 631 706T268 1L257 -7Q227 -2 184 -2Q141 -2 99 -8Z" />
<glyph unicode="8" glyph-name="null" horiz-adv-x="1024" d="M421 700Q315 754 267 820T219 977Q219 1137 362 1266T670 1395Q792 1395 862 1325T933 1147Q933 1042 872 953T629 751Q758 689 806 619T855 443Q855 348 822 259T718 104T555 3T369 -34Q282 -34
210 -4T95 98T53 256Q53 381 137 491T421 700ZM571 781Q634 820 683 867T764 982T796 1111Q796 1203 741 1256T599 1310Q536 1310 478 1277T386 1185T352 1049Q352 955 405 896T571 781ZM478 668Q353 614 277 511T200 288Q200 179 263 115T425 50Q551 50 627 148T703
378Q703 472 656 535T478 668Z" />
<glyph unicode="9" glyph-name="null" horiz-adv-x="1024" d="M107 5Q93 65 66 145Q49 195 46 206L51 216L79 226L89 221Q141 127 196 97T320 66Q490 66 598 246T760 742Q695 655 613 599T427 543Q339 543 267 584T159 704T123 878Q123 964 152 1052T239 1208T400
1336T612 1398Q712 1398 784 1347T893 1205T930 967Q930 809 902 675T805 397T645 159T457 15T267 -33Q176 -33 107 5ZM279 937Q279 857 303 790T381 689T500 654Q610 654 692 744T775 1012Q775 1154 712 1230T550 1306Q434 1306 357 1201T279 937Z" />
<glyph unicode=":" glyph-name="null" horiz-adv-x="512" d="M210 834Q210 888 243 928T331 969Q373 969 397 944T422 872Q422 816 390 771T302 726Q261 726 236 755T210 834ZM92 90Q92 145 127 185T211 225Q257 225 280 199T304 128Q304 70 271 26T184 -18Q141
-18 117 12T92 90Z" />
<glyph unicode=";" glyph-name="null" horiz-adv-x="512" d="M187 834Q187 894 223 931T308 969Q351 969 375 943T399 873Q399 815 366 771T279 726Q234 726 211 757T187 834ZM-51 -299L-67 -280Q-21 -229 34 -112T125 182Q251 213 311 241L331 214Q288 112 189
-44T18 -273L-51 -299Z" />
<glyph unicode="&lt;" glyph-name="null" horiz-adv-x="1024" d="M994 122L30 587V677L994 1142V1027L166 632L994 237V122Z" />
<glyph unicode="=" glyph-name="null" horiz-adv-x="1024" d="M994 733H30V835H994V733ZM994 429H30V531H994V429Z" />
<glyph unicode="&gt;" glyph-name="null" horiz-adv-x="1024" d="M994 587L30 122V237L858 632L30 1027V1142L994 677V587Z" />
<glyph unicode="?" glyph-name="null" horiz-adv-x="1024" d="M446 383Q359 425 359 513Q359 577 397 639T540 815Q614 895 651 941T708 1039T729 1132Q729 1204 676 1255T544 1306Q501 1306 454 1292T374 1238T309 1145L298 1140L270 1148L265 1159Q315 1270
344 1349Q452 1426 575 1426Q644 1426 709 1403T815 1345T875 1260T896 1155Q896 1107 880 1057T830 958T753 866T604 726Q495 624 464 583T433 497Q433 437 489 405L487 395L446 383ZM263 90Q263 145 298 185T382 225Q428 225 451 199T475 128Q475 70 442 26T355
-18Q312 -18 288 12T263 90Z" />
<glyph unicode="@" glyph-name="null" horiz-adv-x="1399" d="M1144 183L1152 175Q1140 152 1137 127Q932 -42 651 -42Q387 -42 218 125T48 551Q48 845 260 1046T781 1248Q1028 1248 1189 1114T1351 758Q1351 651 1316 562T1225 401T1103 292T968 255Q908 255
865 288T821 384Q821 397 823 417L812 419Q767 343 712 305T580 266Q476 266 425 335T374 523Q374 697 480 846T754 996Q797 996 827 985T875 955T910 905L923 975L1029 998L1040 987Q1014 890 969 680T923 411Q923 362 945 338T1007 313Q1071 313 1130 368T1228
525T1268 756Q1268 983 1128 1091T787 1200Q624 1200 477 1117T246 883T163 550Q163 398 223 275T401 82T681 13Q819 13 942 62T1144 183ZM511 524Q511 417 540 372T625 327Q659 327 686 342T742 390T800 489T853 656T877 815Q877 874 849 911T765 949Q661 949
586 805T511 524Z" />
<glyph unicode="A" glyph-name="null" horiz-adv-x="1479" d="M-14 -8L-21 0L-14 44L-5 51L53 60Q78 64 87 69T106 86T151 150T243 293L265 325L957 1420H1051L1219 212Q1233 111 1244 90T1277 64T1391 51L1397 43L1389 0L1380 -8Q1240 0 1139 0Q1071 0 900 -8L893
0L900 43L909 51Q1033 56 1050 66T1068 109Q1068 117 1054 263L1015 559H516L375 325Q355 292 312 213T262 118T255 91Q255 74 274 66T421 52L427 44L420 0L411 -8Q295 0 193 0Q109 0 -14 -8ZM566 637H1006L930 1218L566 637Z" />
<glyph unicode="B" glyph-name="null" horiz-adv-x="1251" d="M81 -7L73 0L78 43L86 51Q142 61 151 66T170 85T194 149T260 484L321 826L357 1045Q390 1268 390 1299Q390 1325 380 1334T338 1347T229 1354L222 1363L227 1405L237 1413Q328 1405 506 1405L758 1409Q967
1409 1056 1340T1146 1142Q1146 1071 1119 1008T1035 890T920 803T778 741Q913 721 974 696T1076 609T1116 460Q1116 383 1083 307T990 173T842 66T697 5T539 -7Q471 -7 340 -3Q253 0 211 0Q145 0 81 -7ZM463 767Q531 763 571 763Q669 763 733 782T854 848T943
964T976 1114Q976 1228 905 1282T710 1336Q642 1336 565 1323Q505 1044 463 767ZM356 94Q451 69 581 69Q698 69 773 110T891 241T934 433Q934 516 902 574T801 662T585 691Q517 691 449 684L421 520L380 270Q361 155 356 94Z" />
<glyph unicode="C" glyph-name="null" horiz-adv-x="1366" d="M1230 208L1240 179L1210 106Q1003 -42 730 -42Q530 -42 392 33T187 246T120 572Q120 729 162 864T282 1099T467 1276T684 1394T938 1435Q1164 1435 1351 1357L1355 1346Q1325 1259 1305 1065L1297
1057H1255L1247 1065Q1247 1197 1244 1221Q1119 1329 884 1329Q790 1329 702 1306T545 1231T423 1088T335 879T301 612Q301 340 434 203T795 66Q1017 66 1230 208Z" />
<glyph unicode="D" glyph-name="null" horiz-adv-x="1593" d="M81 -7L73 0L78 43L86 51Q142 61 151 66T170 85T194 149T260 484L321 826L357 1045Q390 1268 390 1299Q390 1325 380 1334T338 1347T229 1354L222 1363L227 1405L237 1413Q333 1406 489 1406L870 1412Q1052
1412 1159 1387T1349 1301T1478 1132T1525 879Q1525 743 1486 615T1369 373T1190 180T1008 63T830 9T606 -9Q518 -9 408 -4Q315 0 227 0Q144 0 81 -7ZM365 112Q547 80 716 80Q867 80 975 138T1165 303T1294 563T1340 858Q1340 957 1313 1046T1215 1208T1033 1303T784
1327Q676 1327 567 1316L494 918L409 422Q373 212 365 112Z" />
<glyph unicode="E" glyph-name="null" horiz-adv-x="1251" d="M79 -8L72 0L75 43L85 51Q154 59 166 65Q173 69 178 76Q193 96 206 149Q218 196 282 545L362 1000Q405 1260 405 1306Q405 1325 396 1334T352 1347T244 1354L238 1362L243 1405L252 1413Q349 1405
460 1405Q986 1405 1156 1413L1164 1405Q1161 1382 1146 1281L1127 1107L1119 1099H1084L1076 1107Q1066 1259 1063 1275T1045 1302T947 1319T776 1327Q657 1327 582 1318Q542 1145 479 768Q579 765 657 765Q793 765 990 778L997 768L959 673Q726 684 602 684Q554
684 464 682L403 317Q376 159 369 94Q507 82 637 82Q764 82 852 89T960 104T990 133T1022 231Q1036 285 1047 318L1056 326H1098L1105 318Q1091 274 1076 162T1057 1L1044 -8L348 0Q174 0 79 -8Z" />
<glyph unicode="F" glyph-name="null" horiz-adv-x="1138" d="M29 -8L22 0L25 43L35 51Q155 53 171 82T241 397L306 752L365 1098Q392 1256 392 1305Q392 1322 374 1337T231 1354L224 1362L229 1405L238 1413Q264 1413 312 1411L507 1405L1116 1413L1126 1404Q1101
1265 1093 1105L1085 1097H1047L1039 1105Q1039 1253 1017 1289T710 1325Q636 1325 563 1319Q540 1227 510 1048L451 697L677 694Q777 694 970 713L980 702L938 600Q668 611 609 611Q522 611 436 606Q363 185 363 127Q357 84 382 73T554 49L562 41L557 0L548 -8Q342
0 251 0Q152 0 29 -8Z" />
<glyph unicode="G" glyph-name="null" horiz-adv-x="1479" d="M1263 87L1254 72Q1220 69 1130 38Q993 -8 919 -24T747 -41Q537 -41 396 32T187 239T120 544Q120 735 185 907T380 1200T654 1377T973 1435Q1185 1435 1381 1356L1385 1345Q1349 1237 1327 1061L1319
1053H1277L1269 1061Q1269 1134 1262 1232Q1209 1277 1108 1304T902 1331Q730 1331 595 1250T381 987T302 592Q302 472 331 368T434 187T604 82T811 53Q976 53 1090 118L1127 314Q1142 399 1142 428Q1142 454 1126 467T1047 485L911 496L903 504L909 548L919 556L954
555Q1130 549 1183 549Q1295 549 1422 552L1429 544L1425 505L1417 496Q1355 485 1339 478T1316 460T1298 399L1286 342Q1278 303 1267 228T1256 120Q1256 105 1263 87Z" />
<glyph unicode="H" glyph-name="null" horiz-adv-x="1593" d="M465 784L941 780Q1099 780 1220 784Q1300 1226 1300 1305Q1300 1322 1282 1337T1139 1354L1133 1362L1137 1405L1147 1413L1426 1405Q1521 1405 1631 1413L1639 1405L1635 1362L1626 1354Q1545 1350
1519 1346T1484 1317T1437 1109T1371 755L1304 355Q1267 134 1267 95Q1267 77 1287 67T1430 51L1436 43L1431 0L1422 -8L1160 0Q1055 0 937 -8L930 0L934 43L943 51Q994 52 1067 69Q1085 84 1099 142T1152 411L1204 697L808 701Q771 701 541 696L449 694Q356 159
356 96Q356 78 376 67T519 51L525 43L520 0L511 -8L248 0Q144 0 26 -8L19 0L22 43L32 51Q118 56 141 61T180 112T238 396L303 753L362 1100Q389 1259 389 1304Q389 1324 371 1337T228 1354L221 1362L226 1405L235 1413L515 1405Q609 1405 720 1413L727 1405L724
1362L715 1354Q617 1351 595 1341T560 1272L524 1098Q515 1053 465 784Z" />
<glyph unicode="I" glyph-name="null" horiz-adv-x="682" d="M525 43L520 0L511 -8Q507 -8 447 -6Q290 0 248 0Q145 0 26 -8L19 0L22 43L32 51Q121 56 139 61Q149 64 154 68T164 79Q176 98 186 132Q197 174 238 397L303 752L362 1098Q389 1268 389 1305Q389 1332
367 1340T228 1354L221 1362L226 1405L235 1413Q240 1413 309 1411Q467 1405 515 1405Q610 1405 720 1413L727 1405L724 1362L715 1354Q610 1348 595 1342Q587 1338 580 1330T565 1293Q540 1199 484 890L403 420Q356 134 356 96Q356 79 366 71T414 58T519 51L525
43Z" />
<glyph unicode="J" glyph-name="null" horiz-adv-x="682" d="M206 1354L200 1362L205 1405L214 1413Q240 1413 303 1411L509 1405Q599 1405 714 1413L721 1405L718 1362L709 1354Q591 1349 577 1337T526 1129T462 758L357 78Q315 -192 216 -309T13 -426Q-21 -426
-64 -407L-68 -363L-60 -354Q-35 -364 -10 -364Q75 -364 118 -267T223 234L362 1138Q383 1275 383 1305Q383 1327 357 1339T206 1354Z" />
<glyph unicode="K" glyph-name="null" horiz-adv-x="1366" d="M253 1405L262 1413L542 1405Q637 1405 747 1413L754 1405L751 1362L742 1354Q640 1348 623 1342T591 1292T537 1028L480 715Q632 828 833 1033L1073 1278Q1110 1317 1117 1335T1125 1405L1133 1413Q1201
1406 1265 1406Q1312 1406 1386 1413L1394 1405L1390 1362L1382 1354Q1321 1353 1293 1339T1195 1260L647 744L1093 196Q1169 103 1199 82T1313 52L1319 44L1315 0L1306 -8Q1233 0 1173 0Q1135 0 1040 -8Q803 333 476 690Q383 159 383 96Q383 78 403 67T546 51L552
43L547 0L538 -8L275 0Q172 0 53 -8L46 0L49 43L59 51Q179 53 195 82T265 397L330 752L389 1098Q416 1256 416 1305Q416 1322 398 1337T255 1354L248 1362L253 1405Z" />
<glyph unicode="L" glyph-name="null" horiz-adv-x="1139" d="M56 -7L48 0L53 43L61 51Q117 61 126 66T145 85T169 149T235 484L296 826L332 1045Q365 1268 365 1299Q365 1325 355 1334T313 1347T204 1354L197 1363L202 1405L212 1413Q334 1405 510 1405Q642 1405
717 1413L725 1405L720 1362L712 1353Q590 1343 578 1339T558 1328T545 1304Q530 1263 486 1022L366 317Q342 165 339 89Q451 77 547 77Q674 77 749 80T868 92T922 107T941 128T966 198L1003 327L1012 335H1055L1063 326Q1025 91 1016 1L1007 -7L654 -3L193 0Q124
0 56 -7Z" />
<glyph unicode="M" glyph-name="null" horiz-adv-x="1933" d="M-24 -8L-32 0L-28 43L-19 51Q67 60 84 69Q95 74 102 83Q121 108 151 200Q215 395 278 619L403 1068Q449 1236 449 1269Q449 1309 413 1330T259 1354L251 1362L255 1405L264 1413Q366 1408 447 1408Q526
1408 598 1413L904 233L1375 1047Q1463 1200 1572 1413Q1692 1405 1742 1405Q1799 1405 1906 1413L1913 1405L1909 1362L1900 1354L1836 1346Q1785 1341 1771 1333T1750 1309T1737 1242T1717 1055T1696 820L1667 418Q1652 207 1652 147Q1652 88 1681 73T1827 51L1836
42L1831 0L1822 -8Q1726 2 1569 2Q1433 2 1299 -8L1292 0L1295 43L1304 51Q1440 52 1465 78T1501 255L1567 1185Q1516 1111 1285 715T937 98L863 -38H817L513 1130Q248 214 248 114Q248 88 260 76T299 59T417 51L424 43L421 0L412 -8L376 -6Q241 0 171 0Q108 0
-24 -8Z" />
<glyph unicode="N" glyph-name="null" horiz-adv-x="1593" d="M21 -8L13 0L17 44L26 52Q114 56 137 69T183 160T287 682L383 1248Q341 1315 301 1333T162 1354L156 1362L159 1405L168 1413Q241 1406 347 1406Q419 1406 489 1413Q499 1392 553 1294L626 1163L1186
213L1341 1136L1357 1257Q1361 1287 1361 1295Q1361 1323 1343 1333T1250 1350L1201 1354L1193 1362L1197 1405L1205 1413Q1274 1410 1419 1410Q1569 1410 1630 1413L1637 1405L1634 1362L1626 1354Q1503 1347 1491 1326T1429 1058L1357 693L1291 312Q1264 156
1242 -27H1140Q1130 -6 1087 73L1024 185L455 1151L356 610L317 355Q288 165 288 124Q288 82 312 68T422 53Q436 53 458 51L465 44L461 1L452 -8Q345 0 234 0Q148 0 21 -8Z" />
<glyph unicode="O" glyph-name="null" horiz-adv-x="1593" d="M120 542Q120 684 160 839T308 1136T576 1359T947 1440Q1125 1440 1254 1381T1457 1196T1532 878Q1532 618 1408 392T1093 63T685 -41Q568 -41 462 -7T276 106T158 298T120 542ZM299 553Q299 394 345
282T497 108T753 47Q941 47 1071 142T1276 447T1352 863Q1352 978 1326 1065T1239 1222T1089 1326T892 1360Q716 1360 586 1273T378 984T299 553Z" />
<glyph unicode="P" glyph-name="null" horiz-adv-x="1251" d="M40 -8L33 0L36 43L46 51Q135 56 153 61Q163 64 168 68T178 79Q190 98 200 132Q211 174 252 397L317 752L376 1098Q403 1268 403 1305Q403 1332 381 1340T242 1354L235 1362L240 1405L249 1413Q327
1405 488 1405Q583 1405 679 1408Q807 1412 848 1412Q1056 1412 1133 1324T1211 1110Q1211 995 1155 874T985 671T731 589Q635 589 550 637V684L561 692Q627 659 701 659Q790 659 866 710T987 855T1031 1057Q1031 1206 954 1271T737 1336Q672 1336 582 1318Q578
1291 550 1152Q532 1060 505 900L462 666Q447 593 424 450L390 240Q379 172 378 154T376 125Q376 85 402 72T560 51L567 43L561 0L552 -8Q445 0 287 0Q162 0 40 -8Z" />
<glyph unicode="Q" glyph-name="null" horiz-adv-x="1593" d="M1412 -122H1445L1454 -131Q1445 -256 1385 -333T1227 -410Q1181 -410 1132 -397T1025 -357T844 -265Q652 -164 595 -140T489 -116Q435 -116 400 -138T344 -208T322 -322V-335L313 -344L279 -324L273
-314Q272 -296 272 -287Q272 -183 337 -106T518 -28Q529 -28 554 -29Q342 8 231 158T120 542Q120 778 216 986T501 1317T947 1440Q1125 1440 1254 1381T1457 1196T1532 878Q1532 618 1408 392T1093 63T687 -41Q642 -41 596 -36Q635 -45 710 -79Q913 -170 1061 -227T1273
-284Q1310 -284 1332 -270T1373 -225T1403 -131L1412 -122ZM299 553Q299 394 345 282T497 108T753 47Q941 47 1071 142T1276 447T1352 863Q1352 978 1326 1065T1239 1222T1089 1326T892 1360Q716 1360 586 1273T378 984T299 553Z" />
<glyph unicode="R" glyph-name="null" horiz-adv-x="1366" d="M582 1318L462 666L390 240Q376 154 376 125Q376 71 447 58Q450 57 560 51L567 43L561 0L552 -8Q445 0 287 0Q162 0 40 -8L33 0L36 43L46 51Q166 53 182 82T252 397L317 752L376 1098Q403 1256 403
1305Q403 1322 385 1337T242 1354L235 1362L240 1405L249 1413Q327 1405 488 1405L820 1412Q1016 1412 1104 1337T1193 1140Q1193 993 1084 879T769 720Q785 697 823 635Q888 528 1030 319T1210 80T1300 51L1306 43L1303 0L1295 -8Q1211 -2 1172 -2Q1167 -2 1036
-8Q1033 -5 955 126L892 232Q862 283 806 367L607 667L549 746L559 770L642 766Q815 766 915 870T1016 1107Q1016 1336 737 1336Q669 1336 582 1318Z" />
<glyph unicode="S" glyph-name="null" horiz-adv-x="1138" d="M107 46Q142 178 156 338L166 347H208L215 339L219 147Q293 88 360 72T488 55Q667 55 756 157T845 391Q845 458 818 505T747 575T582 625Q444 656 378 690T276 791T240 956Q240 1098 319 1207T519
1375T789 1434Q935 1434 1039 1372L1043 1360Q1019 1262 998 1099L990 1091H946L938 1099V1246Q860 1338 706 1338Q615 1338 542 1300T427 1188T386 1027Q386 950 416 899T500 823T683 769Q789 745 833 729T919 677T983 589T1005 468Q1005 324 918 209T708 26T415
-43Q252 -43 111 34L107 46Z" />
<glyph unicode="T" glyph-name="null" horiz-adv-x="1252" d="M276 -8L269 0L273 44L281 51Q401 60 422 68T451 87T468 128T519 370T605 847T671 1317Q341 1317 299 1301T214 1085L205 1077H165L157 1085Q188 1339 190 1403L200 1413L273 1408Q289 1407 341 1406L759
1398L1262 1407Q1271 1407 1330 1413L1339 1403Q1313 1305 1287 1086L1277 1077H1237L1229 1086Q1230 1103 1232 1208Q1231 1274 1215 1295T842 1317Q832 1274 799 1087L733 716Q721 649 683 404T644 110Q644 83 664 70T831 52L839 43L835 0L826 -8Q658 0 555 0Q405
0 276 -8Z" />
<glyph unicode="U" glyph-name="null" horiz-adv-x="1593" d="M1448 41L1441 0L1432 -8Q1341 0 1228 0Q1151 0 1085 -8L1078 0L1128 247Q1036 138 893 51T578 -36Q468 -36 380 6T251 121T210 280Q210 338 224 434T273 718Q363 1209 363 1291Q363 1324 346 1334T300
1348T202 1355L194 1363L198 1405L207 1413Q319 1408 377 1408Q457 1408 562 1413L517 1194Q497 1095 467 926L415 636Q393 514 384 449T373 357T371 307Q371 192 457 135T657 78Q766 78 896 146T1148 360L1261 1053Q1294 1255 1294 1299Q1294 1331 1271 1340T1125
1355L1117 1363L1121 1405L1130 1413Q1249 1406 1401 1406Q1510 1406 1628 1413L1635 1405L1631 1363L1622 1355Q1522 1350 1506 1343Q1496 1339 1488 1329T1469 1280Q1443 1187 1391 897L1312 428Q1265 132 1265 102Q1265 79 1274 71T1325 57T1440 50L1448 41Z"
/>
<glyph unicode="V" glyph-name="null" horiz-adv-x="1347" d="M462 -16Q454 64 417 328L303 1112Q276 1295 265 1324T118 1354L111 1362L115 1405L123 1413Q224 1406 347 1406Q464 1406 612 1413L619 1405L616 1361L608 1354L541 1353Q489 1352 469 1342T449 1295Q449
1217 466 1048T591 206Q933 763 1082 1025T1231 1316Q1231 1348 1151 1354H1050L1043 1362L1047 1405L1056 1413Q1131 1406 1278 1406Q1416 1406 1486 1413L1493 1405L1489 1362L1482 1354Q1412 1348 1390 1328T1258 1132L900 553Q845 464 561 -16H462Z" />
<glyph unicode="W" glyph-name="null" horiz-adv-x="1933" d="M1123 1424Q1148 1308 1187 1162L1429 264Q1458 329 1531 514L1651 817Q1826 1259 1826 1309Q1826 1325 1808 1338T1671 1354L1664 1362L1669 1404L1678 1413Q1773 1406 1903 1406Q2008 1406 2072
1413L2079 1405L2075 1362L2066 1354Q1991 1352 1973 1334T1898 1180L1736 794L1573 392Q1468 133 1424 -16H1324L1299 111Q1290 157 1262 266L1038 1111Q1001 1043 815 683L607 280Q512 96 474 -16H373Q370 140 332 492L271 1060Q252 1240 240 1286T212 1339T113
1354L105 1362L109 1405L118 1413Q201 1408 344 1408Q490 1408 571 1413L579 1404L575 1362L566 1354Q465 1352 442 1339T418 1260Q418 1169 480 575L511 278L802 845Q998 1226 1084 1424H1123Z" />
<glyph unicode="X" glyph-name="null" horiz-adv-x="1478" d="M39 -8L31 0L34 43L44 51Q112 55 132 60T166 77T231 144T366 299L699 699L462 1143L410 1239Q382 1291 369 1307T341 1333T303 1345T189 1354L183 1362L186 1405L195 1413Q268 1408 442 1408Q636 1408
719 1413L726 1405L723 1362L714 1354L632 1352Q593 1350 579 1339T565 1310Q565 1295 578 1266T641 1140L801 824L1032 1115Q1131 1240 1152 1270T1174 1316Q1174 1332 1159 1340T1019 1354L1012 1362L1015 1405L1024 1413Q1136 1409 1268 1409Q1376 1409 1473
1413L1481 1405L1478 1362L1469 1354Q1408 1351 1388 1346T1347 1326T1269 1250T1152 1117L1014 955L844 749L1103 278L1161 171Q1193 114 1207 96T1234 71T1260 61T1375 51L1382 43L1379 0L1369 -8L1314 -6Q1165 0 1101 0Q1027 0 841 -8L833 0L837 43L846 51Q949
54 978 62T1007 95Q1007 104 1004 115T961 207T906 316L740 624L553 394Q484 310 427 233T359 134T348 103Q348 90 355 81T374 68T434 60L523 51L530 43L526 0L517 -8Q348 0 226 0Q116 0 39 -8Z" />
<glyph unicode="Y" glyph-name="null" horiz-adv-x="1366" d="M366 -8L359 0L363 43L372 51Q488 58 503 61T526 70T544 101T578 237T610 418T619 514Q619 601 535 856T386 1197T244 1283Q211 1283 164 1264L153 1271L149 1303L155 1315Q240 1369 308 1427Q362
1425 402 1406T484 1338T573 1183T669 915T744 634Q861 907 1055 1150T1412 1411L1401 1267Q1339 1257 1279 1224T1145 1116T977 900T834 643T765 415Q717 132 717 104Q717 76 732 69T813 57L892 51L899 43L895 0L886 -8Q757 -1 622 -1Q490 -1 366 -8Z" />
<glyph unicode="Z" glyph-name="null" horiz-adv-x="1366" d="M78 -8L70 0L74 43L233 240L1094 1326H734Q450 1326 363 1298Q345 1246 311 1095L302 1087H264L256 1095Q277 1231 279 1404L291 1413Q911 1404 984 1404Q1206 1404 1322 1413L1330 1405L1327 1367L1260
1288L353 146L305 84Q721 80 740 80Q921 80 1001 87T1136 111Q1152 135 1205 329L1216 337H1261L1267 329Q1232 136 1219 0L1209 -8L691 -3Q525 0 412 0Q230 0 78 -8Z" />
<glyph unicode="[" glyph-name="null" horiz-adv-x="682" d="M46 -217L37 -206Q56 -141 77 -21L172 546Q197 688 264 1158Q293 1355 299 1468L312 1478Q407 1473 457 1473Q506 1473 657 1476L665 1468L662 1427L654 1418Q489 1407 474 1401Q467 1398 461 1391T449
1361Q424 1257 363 869L270 277Q218 -69 218 -99Q218 -119 233 -131T307 -149L430 -158L438 -167L431 -209L422 -217Q325 -210 222 -210Q128 -210 46 -217Z" />
<glyph unicode="\" glyph-name="null" horiz-adv-x="1241" d="M929 -17L924 -26H837L825 -17L323 1449L329 1457H416L427 1450L929 -17Z" />
<glyph unicode="]" glyph-name="null" horiz-adv-x="682" d="M17 -205L24 -163L33 -155Q184 -147 203 -141Q212 -138 218 -133T230 -115Q237 -99 268 76Q283 159 338 508L408 960L449 1220Q466 1325 466 1349Q466 1388 438 1400T254 1419L246 1428L252 1469L262
1477Q381 1473 446 1473Q471 1473 633 1478L645 1467Q613 1326 546 929T424 146Q400 -24 386 -205L371 -216Q303 -210 221 -210Q144 -210 25 -214L17 -205Z" />
<glyph unicode="^" glyph-name="null" horiz-adv-x="1024" d="M999 671H883L548 1306L213 671H97L491 1420H605L999 671Z" />
<glyph unicode="_" glyph-name="null" horiz-adv-x="1024" d="M0 -327V-208H1024V-327H0Z" />
<glyph unicode="`" glyph-name="null" horiz-adv-x="682" d="M610 1123L606 1112L585 1095L572 1099Q418 1241 239 1429L254 1450L399 1452Q430 1392 610 1123Z" />
<glyph unicode="a" glyph-name="null" horiz-adv-x="909" d="M840 196L847 169L843 157Q633 -24 557 -24Q507 -24 507 40Q507 71 513 118T533 223L558 330L573 389L567 392Q418 180 289 74T107 -32Q37 -32 37 139Q37 246 69 382T149 634T224 786T319 870T444 942T573
967Q660 967 758 931L822 969L844 951Q841 936 802 801L756 631L731 532Q704 426 681 311T658 153Q658 113 685 113Q702 113 730 128T831 199L840 196ZM671 833Q595 868 507 868Q434 868 377 841Q356 825 334 785T272 634T207 398T182 198Q182 143 191 127T220
111Q256 111 361 208T538 433T658 775L671 833Z" />
<glyph unicode="b" glyph-name="null" horiz-adv-x="948" d="M433 1471L459 1452L389 1133L287 653Q419 828 538 899T747 971Q790 971 815 949T852 877T864 754Q864 610 816 473T713 254T590 113T435 11T268 -32Q183 -32 124 15T64 138Q64 185 99 366L169 726Q189
835 211 959L250 1176Q267 1270 268 1283T270 1308Q270 1331 255 1340T199 1349L115 1350L108 1358L111 1383L119 1392Q305 1422 433 1471ZM210 207Q210 144 245 99T362 53Q474 53 547 154T669 414T718 681Q718 790 699 819T636 848Q570 848 497 803T351 658T244
412T210 207Z" />
<glyph unicode="c" glyph-name="null" horiz-adv-x="833" d="M726 216L737 188L734 176Q613 75 512 21T317 -34Q194 -34 131 42T68 269Q68 361 90 464T149 645T226 767T348 863Q457 931 517 952T632 973Q730 973 801 924L804 911Q775 792 760 670L752 662H721L713
670V737Q714 757 714 771Q714 804 702 822T646 855T547 870Q442 870 380 816T268 598T218 309Q218 184 267 128T393 71Q456 71 525 100T716 219L726 216Z" />
<glyph unicode="d" glyph-name="null" horiz-adv-x="1024" d="M968 1471L993 1452Q946 1254 886 967L768 403Q740 259 733 199Q731 180 731 160Q731 112 759 112Q797 112 918 208L929 205L939 182L936 169Q843 88 753 31T625 -27Q604 -27 591 -5T577 63Q577 100
591 174T645 412L640 413Q532 231 383 102T149 -27Q119 -27 98 -6T64 71T51 189Q51 274 79 406T150 634T235 780T349 877T471 946T577 967Q635 967 745 942L797 1245Q805 1283 805 1309Q805 1331 790 1340T734 1349L650 1350L642 1358L645 1383L653 1392Q840 1422
968 1471ZM726 827Q632 876 532 876Q470 876 432 863T374 829T323 743T261 580T215 390T198 209Q198 155 209 134T243 113Q281 113 351 157Q457 225 541 339T667 582Q686 641 726 827Z" />
<glyph unicode="e" glyph-name="null" horiz-adv-x="797" d="M674 214L685 189L683 176Q437 -32 266 -32Q210 -32 152 -2T66 86T37 232Q37 357 78 498T161 707T286 834T443 930T588 967Q664 967 712 927T760 816Q760 735 714 667T546 537T254 437L207 426Q187
330 187 266Q187 176 227 123T339 70Q474 70 663 218L674 214ZM214 475Q319 494 413 534T558 642T609 780Q609 834 582 860T517 886Q475 886 419 862T319 774T214 475Z" />
<glyph unicode="f" glyph-name="null" horiz-adv-x="569" d="M625 893L634 880Q611 817 601 771L592 764Q545 766 499 766Q445 765 391 764L261 156Q196 -130 147 -239T19 -432T-137 -552Q-184 -575 -231 -575Q-264 -575 -302 -556Q-270 -462 -255 -392L-230 -386Q-188
-442 -127 -442Q-89 -442 -54 -421T12 -345T83 -111T162 288L242 764Q185 765 162 765Q104 765 87 763L79 771L86 801L93 810Q212 853 263 887L303 1082Q322 1172 338 1202T400 1276T524 1380T643 1456T727 1474Q791 1474 859 1447Q817 1336 802 1281L780 1274Q758
1307 719 1327T636 1348Q582 1348 544 1319T483 1215T410 873Q537 875 568 880T625 893Z" />
<glyph unicode="g" glyph-name="null" horiz-adv-x="1024" d="M358 29Q313 76 313 99Q313 123 343 162T450 268Q421 266 403 266Q284 266 214 328T144 515Q144 602 178 688T270 829T411 924T591 964Q763 964 830 852Q946 854 1003 865L1007 860L991 760Q964 762
939 762Q904 762 859 758Q863 726 863 700Q863 558 771 444T521 286Q465 233 465 196Q465 158 494 125T673 -32Q759 -102 785 -155T812 -256Q812 -385 670 -477T314 -569Q140 -569 49 -503T-43 -326Q-43 -261 -7 -197T127 -71T358 29ZM289 553Q289 450 337 392T478
333Q598 333 656 442T714 689Q714 757 694 803T633 875T531 901Q415 901 352 798T289 553ZM390 -7Q305 -28 229 -76T121 -181T88 -300Q88 -400 166 -456T370 -513Q456 -513 526 -489T637 -419T677 -317Q677 -282 660 -246T617 -186T530 -115L390 -7Z" />
<glyph unicode="h" glyph-name="null" horiz-adv-x="1024" d="M458 1471L483 1452Q441 1274 289 549L296 545Q481 788 626 873T849 959Q874 959 889 942T904 899Q904 863 873 739Q833 583 787 381T740 139Q740 122 748 115T765 107Q787 107 828 134T934 208L944
205L956 179L954 168Q871 100 768 35T631 -31Q609 -31 596 -8T582 53Q582 79 585 94T619 244L676 492Q735 734 735 787Q735 823 695 823Q668 823 640 810Q579 780 489 702Q419 640 358 553T263 378Q237 308 215 204L178 6Q56 -19 39 -27L26 -13Q177 560 254 1041L287
1245Q295 1282 295 1308Q295 1329 282 1339T224 1349L140 1350L132 1358L136 1383L143 1392Q331 1422 458 1471Z" />
<glyph unicode="i" glyph-name="null" horiz-adv-x="569" d="M347 1303Q347 1356 380 1396T462 1437Q496 1437 517 1416T538 1356Q538 1302 507 1260T429 1217Q394 1217 371 1241T347 1303ZM86 745L76 768L79 781Q215 879 288 918T404 958Q445 958 445 899Q445
872 435 823T384 623Q275 219 275 145Q275 105 303 105Q346 105 459 190L469 187L480 161L478 149Q408 95 334 45T229 -18T176 -32Q146 -32 129 -6T112 55Q112 100 124 151T155 266Q220 498 247 628T275 787Q275 821 252 821Q237 821 223 814T97 741L86 745Z" />
<glyph unicode="j" glyph-name="null" horiz-adv-x="569" d="M357 1303Q357 1356 390 1396T472 1437Q507 1437 527 1416T548 1357Q548 1301 517 1259T438 1217Q404 1217 381 1240T357 1303ZM-136 -557L-120 -460L-103 -450Q-60 -474 -48 -477T-22 -481Q30 -481
54 -419T135 -69Q142 -30 194 216T271 598L298 756Q301 778 301 788Q301 823 271 823Q236 823 111 742L100 746L89 769L93 783Q241 887 310 924T424 961Q469 961 469 901Q469 851 415 615L313 164Q264 -51 215 -210T111 -448T16 -551T-64 -574Q-89 -574 -136 -557Z"
/>
<glyph unicode="k" glyph-name="null" horiz-adv-x="909" d="M456 1471L481 1452Q446 1308 388 1031L330 755Q294 584 264 466Q342 578 462 714T680 912T847 975Q875 975 916 959L882 819Q838 833 798 833Q744 833 691 811T582 744T458 630Q492 523 549 379T637
177T684 108T713 97Q741 97 816 143L847 162L858 159L868 135L865 123Q724 19 680 -6T614 -31Q604 -31 593 -25T560 12T501 132T442 277T357 515Q296 440 279 415T251 362T225 279T199 152L175 10L39 -26L22 -13L71 177Q102 298 162 591T249 1038L286 1247Q293
1286 293 1308Q293 1329 280 1339T222 1349L138 1350L130 1358L133 1383L141 1392Q327 1421 456 1471Z" />
<glyph unicode="l" glyph-name="null" horiz-adv-x="569" d="M481 1471L507 1452Q468 1289 344 690Q255 262 243 179Q241 161 241 147Q241 126 251 114T273 102Q306 102 416 185L445 206L455 203L466 177L463 165Q221 -30 137 -30Q107 -30 92 -8T76 54Q76 96 89
160T177 564Q248 887 276 1046L311 1246Q318 1286 318 1308Q318 1331 303 1340T248 1349L164 1350L156 1358L159 1383L167 1392Q355 1422 481 1471Z" />
<glyph unicode="m" glyph-name="null" horiz-adv-x="1593" d="M107 -20L92 -3L150 205Q180 315 207 445T246 660T258 775Q258 827 229 827Q215 827 188 813T84 750L72 754L62 776L65 791Q302 964 379 964Q423 964 423 914Q423 895 418 859T355 555Q493 751 639
856T877 962Q926 962 926 917Q926 875 916 818T857 552Q1000 751 1162 857T1415 963Q1464 963 1464 913Q1464 845 1365 478Q1289 199 1289 140Q1289 99 1318 99Q1334 99 1361 112T1477 188L1487 184L1498 159L1495 146Q1450 110 1372 57T1253 -14T1187 -32Q1158
-32 1141 -11T1124 45Q1124 74 1128 97T1157 208Q1193 336 1240 538T1288 797Q1288 815 1278 823T1256 832Q1230 832 1171 800T1033 691T906 536T822 341T750 5Q704 -2 611 -23L596 -11Q675 273 718 490T761 786Q761 829 732 829Q703 829 646 798T507 677T374 483T291
230T245 7Q167 -5 107 -20Z" />
<glyph unicode="n" glyph-name="null" horiz-adv-x="1139" d="M118 -25L105 -8Q170 191 220 451T271 781Q271 820 244 820Q207 820 90 741L78 744L69 766L72 781Q112 811 167 849T277 916T351 952T388 959Q416 959 426 940T437 899Q437 854 404 721Q394 684 350
502L357 500Q431 621 539 732T762 901T931 959Q961 959 976 941T991 893Q991 824 922 557Q829 201 829 138Q829 101 856 101Q889 101 1024 197L1035 194L1046 168L1043 156Q981 106 901 54T785 -15T725 -31Q694 -31 680 -10T665 44Q665 79 681 153T748 427Q821
708 821 772Q821 825 783 825Q756 825 720 808Q656 778 582 711T447 553T351 373T290 170Q286 156 259 7Q190 -4 118 -25Z" />
<glyph unicode="o" glyph-name="null" horiz-adv-x="909" d="M39 279Q39 470 104 627T302 876T563 969Q679 969 758 899T837 657Q837 489 763 317T558 57T303 -31Q220 -31 158 7T68 112T39 279ZM199 293Q199 207 216 157T276 76T382 45Q448 45 498 80T593 210T658
422T679 639Q679 730 658 785T596 868T497 896Q343 896 271 712T199 293Z" />
<glyph unicode="p" glyph-name="null" horiz-adv-x="1024" d="M2 -569L-10 -557L20 -420Q49 -289 108 30L184 449Q200 549 210 633L223 751Q227 785 227 797Q227 831 200 831Q187 831 159 817T31 738L18 742L9 764L12 779Q109 858 203 912T345 966Q391 966 391
919Q391 864 336 589Q449 776 588 870T826 965Q871 965 893 941T931 860T946 736Q946 644 914 526T838 323T738 179T602 71T464 -4T369 -30Q342 -30 318 -25T236 -1L152 -536Q43 -551 2 -569ZM256 112Q341 64 427 64Q501 64 556 98T670 251T761 493T792 710Q792
792 776 821T722 850Q672 850 610 819T477 709T353 517Q319 443 293 325L256 112Z" />
<glyph unicode="q" glyph-name="null" horiz-adv-x="948" d="M447 -575L429 -550Q448 -534 454 -524T470 -481T517 -254L574 40Q592 140 635 401Q540 248 385 112T150 -25Q107 -25 84 26T61 154Q61 254 87 383T149 606T226 753Q255 792 343 857T483 941T586 960Q703
960 794 914L860 962L889 947Q830 710 758 336T620 -534Q518 -555 447 -575ZM721 810Q632 860 540 860Q478 860 439 848T378 814T324 725T263 550T221 347T209 200Q209 152 223 132T256 111Q273 111 316 132T429 217T559 358T643 495T690 656T721 810Z" />
<glyph unicode="r" glyph-name="null" horiz-adv-x="797" d="M119 -30L101 -16Q171 213 218 462T265 783Q265 828 241 828Q211 828 75 738L63 741L53 763L56 778Q145 849 243 908T388 967Q428 967 428 917Q428 859 355 530Q448 693 537 805T665 943T744 969Q762
969 780 961L784 950Q769 895 750 737L722 731Q693 771 655 771Q627 771 588 748T490 655T390 497T321 303T255 5Q154 -18 119 -30Z" />
<glyph unicode="s" glyph-name="null" horiz-adv-x="797" d="M24 23Q59 181 65 277L73 285H107L115 277V116Q205 39 312 39Q360 39 405 55T480 98T528 171T546 264Q546 296 534 326T492 374T373 409Q283 425 246 435T174 472T119 540T98 631Q98 698 129 752T223
855T351 935T498 967Q616 967 697 919L701 908Q684 850 679 803L667 691L659 683H628L619 691Q619 750 616 806Q546 883 427 883Q333 883 276 829T219 698Q219 636 257 600T401 548Q496 534 536 524T610 491T663 430T683 345Q683 289 662 236T601 137T488 44T359
-23T240 -41Q139 -41 28 12L24 23Z" />
<glyph unicode="t" glyph-name="null" horiz-adv-x="682" d="M548 222L559 199L556 187Q517 153 421 84T282 -9T208 -33Q179 -33 162 -6T144 71Q144 130 178 282Q217 458 278 783L115 779L108 787L111 804L119 812Q226 850 291 885Q310 973 343 1230Q450 1275
500 1302L524 1284L485 1131Q478 1102 432 873Q477 870 505 870Q604 870 645 884L655 876L632 778Q595 778 414 783Q303 250 303 155Q303 109 341 109Q360 109 391 125T501 199L536 226L548 222Z" />
<glyph unicode="u" glyph-name="null" horiz-adv-x="1139" d="M91 751L81 774L84 788Q114 811 214 872T353 951T413 968Q434 968 446 952T458 915Q458 892 429 775Q301 250 301 156Q301 112 331 112Q369 112 452 178T632 367T773 614T851 931Q863 933 988 963L1003
948Q1002 942 979 865Q939 736 899 568T841 300T823 157Q823 110 855 110Q872 110 897 125T1010 207L1021 203L1032 180L1030 167Q854 28 800 -2T716 -33Q692 -33 679 -12T665 38Q665 100 749 449L743 452L669 346Q631 292 580 234T461 114T336 18T255 -25T216
-34Q187 -34 166 -6T144 79Q144 156 183 314Q282 711 282 796Q282 828 256 828Q226 828 103 748L91 751Z" />
<glyph unicode="v" glyph-name="null" horiz-adv-x="1024" d="M41 707L122 937Q165 952 207 952Q242 952 334 943Q415 935 453 935Q513 935 562 952L580 924Q306 587 306 286Q306 189 347 129T464 69Q563 69 650 167T790 420T844 689Q844 821 755 821Q731 821
707 809L696 810L683 831V843Q719 871 759 915L790 949Q807 958 829 958Q897 958 934 906T972 771Q972 602 871 401T630 82T385 -37Q294 -37 227 34T159 226Q159 366 222 505T464 841Q442 833 319 833L276 835Q210 835 151 824Q134 799 84 705L74 699H47L41 707Z"
/>
<glyph unicode="w" glyph-name="null" horiz-adv-x="1479" d="M40 699L34 707L115 937Q158 952 200 952Q235 952 327 943Q408 935 446 935Q506 935 555 952L573 924Q300 589 300 283Q300 73 415 73Q499 73 614 256T808 917Q883 928 959 957L973 945Q825 467 825
255Q825 176 859 126T954 75Q1088 75 1192 278T1297 677Q1297 824 1197 824Q1172 824 1145 811L1134 813L1118 831V842Q1178 898 1223 949Q1252 959 1280 959Q1425 959 1425 758Q1425 596 1332 403T1106 88T863 -35Q783 -35 738 22T693 165Q693 254 713 353L646
232Q578 109 494 37T335 -35Q252 -35 202 38T152 230Q152 366 214 504T457 841Q435 833 312 833L269 835Q203 835 144 824Q127 799 77 705L67 699H40Z" />
<glyph unicode="x" glyph-name="null" horiz-adv-x="1024" d="M8 -6Q32 122 33 164L39 172L65 176L75 170L95 119Q120 102 143 102Q206 102 271 175T445 429Q440 462 421 574T379 745T336 819T288 835Q254 835 229 820T165 765Q145 745 144 744L134 742L110 756L108
767L223 930Q274 966 341 966Q424 966 475 900T549 597L656 759Q672 786 727 851T825 942T910 968Q942 968 972 951Q949 833 943 784L936 776L920 772L910 777Q897 799 885 807T850 816Q798 816 746 771T563 537Q609 246 642 173T726 99Q755 99 785 116T875 186L887
185L901 164L900 152Q836 89 780 45T695 -15T630 -31Q581 -31 551 8T500 127T459 360Q374 217 302 121T185 -4T90 -33Q40 -33 8 -6Z" />
<glyph unicode="y" glyph-name="null" horiz-adv-x="1024" d="M-12 -378L87 -311L108 -318Q106 -334 106 -346Q106 -418 148 -454T238 -491Q276 -491 315 -472T392 -407T477 -256T562 -28T637 228L671 353Q603 249 546 186T434 66T343 -13T279 -35Q237 -35 213
16T189 144Q189 183 203 304Q227 523 227 684Q227 767 219 792T189 818Q166 818 131 795T43 731L30 735L19 759L22 774Q245 962 316 962Q346 962 363 936T381 838Q381 770 371 660Q340 320 340 206Q340 166 348 145T379 124Q394 124 418 136T497 201T605 334T701
512T768 697T826 926Q894 936 977 964L999 944Q949 844 815 387Q747 152 702 17T594 -230T450 -424T296 -539T157 -573Q86 -573 35 -529T-17 -412Q-17 -397 -12 -378Z" />
<glyph unicode="z" glyph-name="null" horiz-adv-x="909" d="M18 -14L3 27L5 38L709 829Q635 786 537 786Q482 786 336 807Q262 818 235 818Q215 818 193 806Q155 746 138 697L129 689H100L94 697L157 935Q194 955 255 955Q332 955 453 923Q554 897 603 889T697
880Q741 880 765 894T831 954L849 938L835 874L157 115Q253 160 328 160Q378 160 488 134Q583 111 634 111Q681 111 720 131L770 267L781 275H812L817 268L783 106L759 -12Q706 -33 646 -33Q602 -33 577 -29T474 -5Q367 22 307 32T191 43Q91 43 29 -16L18 -14Z"
/>
<glyph unicode="{" glyph-name="null" horiz-adv-x="682" d="M96 629L103 668Q185 671 230 725T292 880L351 1231Q385 1431 519 1480Q575 1500 642 1500Q662 1500 716 1501L712 1466Q685 1464 649 1462Q601 1460 571 1415Q525 1366 506 1258L443 906Q423 792 380
737Q331 673 227 648Q363 610 363 493Q363 442 351 374L292 42Q285 3 285 -38Q285 -82 312 -121Q342 -164 383 -164Q403 -164 424 -165L419 -199H332Q264 -199 214 -169Q142 -127 142 -25Q142 31 154 99L210 417Q218 462 218 503Q218 576 176 609Q151 629 96 629Z"
/>
<glyph unicode="|" glyph-name="null" horiz-adv-x="1024" d="M454 0V1501H569V0H454Z" />
<glyph unicode="}" glyph-name="null" horiz-adv-x="682" d="M586 674L579 635Q497 632 453 578T391 423L332 72Q298 -128 164 -176Q108 -197 40 -197Q20 -197 -37 -199L-30 -163Q-5 -160 37 -156Q73 -153 111 -112Q157 -63 177 45L240 397Q260 511 302 566Q352
630 456 655Q320 693 320 810Q320 861 332 929L391 1261Q398 1300 398 1341Q398 1385 371 1424Q341 1467 300 1467Q280 1467 259 1468L264 1502H351Q418 1502 469 1472Q541 1430 541 1328Q541 1272 529 1204L473 886Q465 841 465 800Q465 727 507 694Q532 674 586
674Z" />
<glyph unicode="~" glyph-name="null" horiz-adv-x="1024" d="M971 709Q869 516 728 516Q659 516 517 579Q375 642 325 642Q281 642 239 616T128 479L71 545Q149 671 204 709T320 748Q390 748 532 685Q674 622 724 622Q832 622 915 771L971 709Z" />
</font>
</defs>
</svg>
