<?xml version="1.0" standalone="no"?> <!DOCTYPE svg PUBLIC "-//W3C//DTD SVG 1.0//EN" "http://www.w3.org/TR/2001/REC-SVG-20010904/DTD/svg10.dtd" > <svg xmlns="http://www.w3.org/2000/svg" width="100%" height="100%">
<defs >
<font horiz-adv-x="915" ><font-face
    font-family="Palatino Linotype"
    units-per-em="2048"
    panose-1="2 4 7 2 6 3 5 10 2 4"
    ascent="1499"
    descent="-582"
    alphabetic="0" />
<missing-glyph horiz-adv-x="1534" d="M1534 -273H0V1589H1534V-273ZM1444 -181V1497H90V-181H1444ZM886 532Q872 533 873 573Q877 633 880 693Q887 810 887 883Q887 1148 874 1148Q860 1148 852 1087T844 952Q844 862 850 686Q857 481 857 384Q857 296 854 164Q851
43 853 -31Q853 -44 872 -70T891 -106Q891 -134 867 -134Q846 -134 826 -100Q809 -70 809 -47Q809 18 813 160Q817 293 816 372Q812 816 787 816Q762 816 758 372Q757 293 761 160Q765 18 765 -47Q765 -70 748 -100Q728 -134 707 -134Q683 -134 683 -106Q683 -97
702 -71T721 -31Q723 43 720 164Q717 296 717 384Q717 481 724 686Q730 862 730 952Q730 1024 718 1087Q708 1140 689 1140Q673 1140 598 1121T494 1101Q485 1101 478 1103Q456 1108 456 1241Q456 1279 452 1346Q449 1407 449 1412Q452 1449 471 1451Q484 1452
491 1438T497 1410Q487 1319 487 1247Q487 1143 509 1135Q534 1125 641 1162Q758 1201 758 1246Q758 1264 742 1297T725 1356Q725 1457 787 1457Q848 1457 848 1356Q848 1330 832 1297T816 1246Q815 1206 903 1181Q919 1176 912 884Q912 750 908 571Q905 531 886
532Z" />
<glyph unicode=" " glyph-name="null" horiz-adv-x="512" />
<glyph unicode="!" glyph-name="null" horiz-adv-x="682" d="M287 387L261 405Q267 454 289 672L328 1077Q346 1263 351 1364Q519 1392 634 1423L657 1405L461 771Q381 512 367 438L287 387ZM137 91Q137 143 156 182T206 245T285 268Q344 268 375 235T407 145Q407
81 369 24T251 -33Q137 -33 137 91Z" />
<glyph unicode="&quot;" glyph-name="null" horiz-adv-x="1024" d="M559 1357Q559 1322 533 1285L288 936H220L362 1362Q392 1451 464 1451Q503 1451 531 1424T559 1357ZM1019 1357Q1019 1322 993 1285L748 936H680L822 1362Q852 1451 924 1451Q963 1451 991 1424T1019
1357Z" />
<glyph unicode="#" glyph-name="null" horiz-adv-x="987" d="M220 0L283 341H135L164 497H313L389 907H241L270 1063H418L473 1359H549L493 1063H722L777 1359H852L797 1063H945L916 907H768L691 497H839L810 341H662L598 0H523L587 341H358L294 0H220ZM387 497H616L693
907H464L387 497Z" />
<glyph unicode="$" glyph-name="null" horiz-adv-x="1024" d="M322 -225L357 -30Q273 -26 203 -2T50 68L47 79Q61 116 77 220T95 360L104 368H156L165 360Q165 323 155 210Q221 102 377 83L464 581Q278 613 210 695T142 904Q142 1083 270 1218T605 1376L622 1506L633
1515H697L705 1505L684 1376Q767 1376 828 1359T968 1297L971 1286Q960 1253 942 1156T921 1026L913 1017H866L857 1025Q863 1073 863 1130Q863 1140 862 1161Q842 1202 788 1233T667 1274L583 797Q709 770 766 744T864 674T922 578T939 465Q939 324 856 208T648
31T452 -29H439L406 -225L395 -234H329L322 -225ZM586 1276Q445 1269 384 1186T322 1001Q322 940 357 896T506 818L586 1276ZM457 78Q603 78 671 163T739 356Q739 412 713 455T653 518T542 560L457 78Z" />
<glyph unicode="%" glyph-name="null" horiz-adv-x="1821" d="M135 1023Q135 1253 313 1374Q403 1435 532 1435Q723 1435 805 1300Q849 1228 849 1132Q849 1036 803 946Q754 848 667 788Q576 725 446 725Q237 725 167 878Q135 948 135 1023ZM328 933Q328 868 358
829T439 790Q565 790 623 1019Q652 1135 652 1225Q652 1370 539 1370Q422 1370 362 1154Q328 1035 328 933ZM1037 254Q1037 484 1214 605Q1305 667 1433 667Q1582 667 1668 581Q1750 499 1750 364Q1750 264 1700 169Q1648 68 1560 14Q1469 -43 1348 -43Q1140 -43
1070 108Q1037 177 1037 254ZM1230 165Q1230 22 1343 22Q1464 22 1522 243Q1554 365 1554 448Q1554 602 1441 602Q1346 602 1284 450Q1230 318 1230 165ZM1456 1487L490 -76H415L410 -66L1375 1496H1451L1456 1487Z" />
<glyph unicode="&amp;" glyph-name="null" horiz-adv-x="1706" d="M1544 1082Q1658 1029 1658 907Q1658 842 1630 786T1560 699T1458 654T1266 617Q1385 566 1385 441Q1385 318 1289 210T1017 31T651 -40Q548 -40 459 -17T297 59T189 187T152 358Q152 655 567
789Q487 798 432 857T377 1006Q377 1083 416 1146T543 1278T711 1384T895 1421Q1016 1421 1120 1369L1126 1356Q1118 1338 1102 1242T1085 1112L1077 1103H1032L1024 1112L1020 1226Q940 1308 823 1308Q719 1308 648 1245T577 1083Q577 1017 609 966T692 891T797
867Q817 867 848 872L856 864Q834 783 832 751Q799 757 768 757Q674 757 584 719T444 599T394 415Q394 313 442 235T578 114T788 71Q877 71 949 93T1078 160T1168 264T1201 394Q1201 446 1179 490T1114 554T1033 575Q1003 575 970 563T918 524T893 479T876 415L867
406H832L825 415L847 628Q913 692 988 716T1216 760Q1358 778 1432 795T1542 849T1579 935Q1579 1010 1508 1034V1047L1534 1080L1544 1082Z" />
<glyph unicode="&apos;" glyph-name="null" horiz-adv-x="512" d="M559 1357Q559 1322 533 1285L288 936H220L362 1362Q392 1451 464 1451Q503 1451 531 1424T559 1357Z" />
<glyph unicode="(" glyph-name="null" horiz-adv-x="682" d="M500 -262Q402 -149 317 -2T197 265T162 529Q162 659 192 769T289 1003T468 1246T737 1492H750L788 1453L787 1440Q593 1245 489 968T385 385Q385 194 429 44T555 -218L552 -230L512 -262H500Z" />
<glyph unicode=")" glyph-name="null" horiz-adv-x="682" d="M219 1492Q306 1396 394 1246T520 975T557 701Q557 571 528 461T431 228T251 -16T-18 -262H-31L-69 -223L-68 -209Q125 -18 230 260T335 845Q335 1217 164 1448L167 1460L207 1492H219Z" />
<glyph unicode="*" glyph-name="null" horiz-adv-x="909" d="M587 696L571 707Q561 901 548 1018Q407 882 325 794L305 796Q283 843 248 902L220 950L224 959L422 1032Q475 1050 521 1073Q483 1092 399 1130L227 1206L224 1221Q277 1285 315 1372L333 1373Q461
1217 553 1128Q569 1226 581 1345L590 1428L601 1438Q651 1418 729 1405L781 1396L787 1382Q644 1147 620 1097Q635 1101 771 1124Q838 1135 917 1158L934 1142Q928 1096 928 1061Q928 1030 932 974L919 965Q751 1014 604 1038Q613 1024 645 963L690 881L753 771L747
753Q656 728 587 696Z" />
<glyph unicode="+" glyph-name="null" horiz-adv-x="1024" d="M993 515H601V129H424V515H32V687H424V1073H601V687H993V515Z" />
<glyph unicode="," glyph-name="null" horiz-adv-x="512" d="M-60 -354L-97 -324Q-32 -230 33 -61T106 219Q236 242 364 290L397 260L324 119Q292 57 244 -19T151 -156T47 -283L-60 -354Z" />
<glyph unicode="-" glyph-name="null" horiz-adv-x="796" d="M90 403L78 422Q121 523 135 612Q201 598 396 598Q642 598 728 608L738 591Q691 480 678 401Q568 412 337 412Q181 412 90 403Z" />
<glyph unicode="." glyph-name="null" horiz-adv-x="512" d="M83 107Q83 182 127 232T237 283Q295 283 331 247T368 146Q368 77 329 21T214 -35Q152 -35 118 2T83 107Z" />
<glyph unicode="/" glyph-name="null" horiz-adv-x="645" d="M-5 -56L519 1499L530 1508H651L657 1499L133 -56L123 -65H1L-5 -56Z" />
<glyph unicode="0" glyph-name="null" horiz-adv-x="1024" d="M88 455Q88 831 237 1121T636 1411Q708 1411 766 1388T863 1328T931 1237T978 1095T998 899Q998 757 966 599T878 317T751 110T607 -8T442 -43Q324 -43 245 20T127 188T88 455ZM321 225Q321 133 351
85T441 36Q487 36 522 61T587 152T658 390T732 784T764 1140Q764 1236 728 1283T636 1331Q604 1331 576 1316T520 1256T459 1108T392 818T339 490T321 225Z" />
<glyph unicode="1" glyph-name="null" horiz-adv-x="1024" d="M87 -10L81 -2L95 54L106 63Q267 67 309 80Q321 84 333 97T355 142Q373 207 424 499L504 962Q540 1169 543 1203Q526 1192 408 1139L172 1032L154 1047L188 1184Q446 1251 599 1314T794 1408L831 1380Q817
1329 738 870L637 299Q616 186 616 139Q616 102 637 87T744 67T882 62L889 53L876 -1L866 -10L832 -8Q819 -7 660 -4T480 0Q292 0 87 -10Z" />
<glyph unicode="2" glyph-name="null" horiz-adv-x="1024" d="M6 -7L-1 2L6 49Q18 63 98 138Q211 244 359 411T588 729T670 1003Q670 1104 619 1163T464 1223Q396 1223 350 1200T273 1137T198 1012L186 1006L139 1022L136 1033L247 1303Q322 1370 393 1390T535
1411Q650 1411 739 1369T875 1247T922 1056Q922 999 912 955T875 859T789 731T668 593T475 402L282 217L283 205L391 204L647 207Q774 208 816 211T912 225L927 210Q905 163 863 0L853 -8Q580 0 439 0L6 -7Z" />
<glyph unicode="3" glyph-name="null" horiz-adv-x="1024" d="M21 58L79 373L89 381L139 376L147 365Q142 309 142 267Q142 150 203 96T360 42Q502 42 577 164T653 452Q653 572 595 636T428 700Q365 700 283 671L272 683L305 788Q332 781 372 781Q529 781 603
862T678 1060Q678 1155 624 1200T487 1246Q402 1246 342 1207T230 1074L218 1068L175 1086L172 1097L283 1317Q332 1365 412 1388T576 1411Q733 1411 826 1338T920 1133Q920 1069 896 1012T826 913T716 830T604 775L603 767Q765 749 840 666T915 456Q915 338 850
225T653 37T346 -39Q253 -39 182 -20T27 45L21 58Z" />
<glyph unicode="4" glyph-name="null" horiz-adv-x="1024" d="M208 -8L201 0L216 54L227 63Q278 65 348 69T431 79T454 102T479 193T510 369L18 364L11 373L19 441L146 644Q206 739 309 886L452 1086Q493 1140 652 1344Q799 1373 900 1414L927 1391Q902 1272 871
1097L770 523Q849 524 987 531L997 523L961 373L950 365Q834 370 742 370Q733 309 722 233T710 123Q710 97 722 86T778 70T932 60L939 52L927 1L917 -8Q914 -8 814 -5Q670 0 581 0Q497 0 208 -8ZM541 523L614 948L636 1068L664 1225Q574 1114 410 882T177 523Q241
520 305 520Q402 520 541 523Z" />
<glyph unicode="5" glyph-name="null" horiz-adv-x="1024" d="M18 68Q58 231 71 358L80 366L124 360L131 351Q127 328 127 300Q127 185 189 115T360 45Q497 45 577 181T657 489Q657 612 601 680T435 748Q365 748 314 719T218 624L155 651Q263 1193 284 1378L295
1386Q419 1372 630 1372Q845 1372 958 1381L970 1361L878 1176Q717 1162 627 1162Q403 1162 344 1169L258 761Q372 864 544 864Q651 864 738 823T873 695T921 514Q921 396 863 271T675 56T360 -35Q170 -35 21 58L18 68Z" />
<glyph unicode="6" glyph-name="null" horiz-adv-x="1024" d="M954 1236L938 1230Q868 1300 766 1300Q611 1300 511 1131T364 693Q503 852 672 852Q800 852 886 768T972 529Q972 429 940 337T865 188T745 72T599 -14T444 -43Q325 -43 241 14T119 175T81 413Q81
543 112 676T189 908T308 1102T479 1271T669 1377T843 1411Q918 1411 998 1379L954 1236ZM326 301Q326 54 498 54Q614 54 666 192T719 478Q719 610 672 662T552 715Q442 715 384 600T326 301Z" />
<glyph unicode="7" glyph-name="null" horiz-adv-x="1024" d="M157 -8L144 17Q222 130 363 352L446 481Q480 534 577 678L744 925L843 1073Q873 1117 896 1148Q841 1152 803 1152Q417 1152 340 1150T162 1139L152 1155L164 1214Q186 1315 195 1379L205 1391Q225
1391 324 1385Q380 1382 415 1381T529 1380L755 1377Q904 1374 920 1374Q991 1374 1102 1381L1111 1371L1106 1305Q1014 1179 858 913T564 369T394 0L382 -8Q295 -4 256 -4Q217 -4 157 -8Z" />
<glyph unicode="8" glyph-name="null" horiz-adv-x="1024" d="M391 673Q297 724 249 793T200 965Q200 1056 237 1130T348 1267T503 1370T688 1411Q814 1411 902 1339T990 1140Q990 1085 972 1036T918 943T846 872T692 767Q929 647 929 442Q929 375 903 301T831
173T702 64T552 -18T399 -43Q247 -43 152 40T57 266Q57 318 70 363T112 451T186 535T263 596T391 673ZM632 802Q714 859 771 931T828 1100Q828 1208 770 1260T623 1312Q525 1312 462 1246T398 1079Q398 1006 440 943T632 802ZM452 634Q359 586 291 496T222 291Q222
183 286 119T453 55Q522 55 582 87T677 189T712 333Q712 415 659 481T452 634Z" />
<glyph unicode="9" glyph-name="null" horiz-adv-x="1024" d="M108 -9Q106 22 88 96T56 203L103 226Q175 61 335 61Q428 61 498 122T624 327T718 671Q575 503 420 503Q289 503 203 591T116 854Q116 951 143 1037T221 1184T352 1299T497 1380T641 1406Q750 1406
837 1351T963 1188T1003 952Q1003 827 972 684T867 397T687 152T480 3T276 -43Q202 -43 108 -9ZM363 874Q363 768 410 710T534 651Q600 651 651 697T725 844T749 1049Q749 1121 731 1183T671 1275T575 1305Q525 1305 485 1280T421 1205T379 1080T362 919L363 874Z"
/>
<glyph unicode=":" glyph-name="null" horiz-adv-x="512" d="M168 757Q168 832 212 882T322 933Q382 933 417 896T453 796Q453 728 414 672T299 615Q239 615 204 651T168 757ZM51 107Q51 182 95 232T205 283Q263 283 299 247T336 146Q336 77 297 21T182 -35Q120
-35 86 2T51 107Z" />
<glyph unicode=";" glyph-name="null" horiz-adv-x="512" d="M169 757Q169 832 213 882T323 933Q383 933 418 896T454 796Q454 726 414 671T300 615Q237 615 203 652T169 757ZM-75 -354L-112 -324Q-47 -230 18 -61T91 219Q221 242 349 290L382 260L309 119Q277
57 229 -19T136 -156T32 -283L-75 -354Z" />
<glyph unicode="&lt;" glyph-name="null" horiz-adv-x="1024" d="M993 15L32 450V604L993 1041V865L265 528L993 191V15Z" />
<glyph unicode="=" glyph-name="null" horiz-adv-x="1024" d="M993 715H32V887H993V715ZM993 352H32V524H993V352Z" />
<glyph unicode="&gt;" glyph-name="null" horiz-adv-x="1024" d="M993 450L32 15V191L760 528L32 865V1041L993 604V450Z" />
<glyph unicode="?" glyph-name="null" horiz-adv-x="909" d="M407 383Q358 430 341 464T324 538Q324 581 349 632T466 777Q581 894 622 960T664 1099Q664 1171 611 1214T474 1258Q406 1258 355 1225T257 1073L246 1066L197 1074L193 1084Q254 1241 276 1335Q356
1385 420 1404T553 1423Q655 1423 744 1386T876 1276T919 1114Q919 1052 901 1001T845 903T747 808T603 703Q526 651 490 621T434 558T415 498Q415 454 451 419L450 407L420 383H407ZM207 91Q207 164 246 216T355 268Q412 268 444 235T476 145Q476 78 437 23T326
-33Q207 -33 207 91Z" />
<glyph unicode="@" glyph-name="null" horiz-adv-x="1428" d="M1439 751Q1439 639 1390 526T1235 331Q1126 247 1019 247Q932 244 882 279T832 384Q761 258 618 258Q376 258 376 520Q376 713 487 852Q607 1002 794 1002Q897 1002 928 935L936 976L1111 1008L1135
986Q1082 788 1049 621T1016 410Q1016 364 1031 350T1069 335Q1096 332 1154 375T1254 523Q1298 632 1298 753Q1298 995 1099 1109Q991 1171 832 1171Q673 1171 527 1091T301 863Q223 721 223 551Q223 324 357 183T725 41Q993 41 1189 213L1214 188Q1207 164 1196
129Q982 -42 699 -42Q302 -42 130 229Q43 366 43 543Q43 724 137 880Q234 1043 413 1144Q596 1248 836 1248Q1089 1248 1262 1114Q1439 977 1439 751ZM896 810Q896 926 803 926Q753 926 703 876Q650 823 611 721Q571 616 571 526Q571 418 599 383T665 348Q715 348
768 409Q834 485 876 673Q896 764 896 810Z" />
<glyph unicode="A" glyph-name="null" horiz-adv-x="1479" d="M-61 -8L-68 1L-61 53L-51 61Q27 67 38 69T62 81T86 107T163 237L280 436L563 923L736 1214Q812 1340 848 1411H1043L1084 1113L1131 783L1170 513L1201 311L1221 190Q1232 108 1255 85T1398 61L1405
52L1399 1L1389 -8Q1163 0 1087 0Q1021 0 795 -8L787 1L795 52L805 61Q902 61 929 76T956 124Q956 194 908 545Q817 546 789 546L636 545H456Q397 443 331 316T253 154T240 107Q240 89 261 77T409 61L416 52L409 0L399 -8Q398 -8 326 -4Q230 0 180 0Q151 0 -61
-8ZM504 636Q552 635 562 635Q873 635 897 636L819 1177L504 636Z" />
<glyph unicode="B" glyph-name="null" horiz-adv-x="1366" d="M48 -6L41 1L48 54L58 63L87 71Q149 85 162 100T203 264T300 813T369 1281Q369 1306 357 1317T326 1331T187 1341L180 1349L188 1404L197 1412Q331 1405 507 1405Q515 1405 638 1409Q757 1413 876
1413Q969 1413 1042 1401T1175 1350T1263 1256T1292 1129Q1292 1070 1271 1015T1209 912T1112 832T1022 787T873 746Q1074 726 1155 647T1236 439Q1236 249 1069 119T659 -12Q591 -12 496 -7Q384 0 325 0Q175 0 48 -6ZM543 772Q576 770 619 770Q743 770 806 789T916
849T991 963T1020 1112Q1020 1199 960 1257T747 1315Q694 1315 638 1309Q634 1278 595 1073L543 772ZM434 104Q594 79 665 79Q822 79 890 192T959 435Q959 514 927 575T832 660T634 685Q580 684 526 683L488 451Q454 252 434 104Z" />
<glyph unicode="C" glyph-name="null" horiz-adv-x="1403" d="M1276 235L1254 153Q1125 68 990 13T689 -43Q511 -43 385 23T197 207T135 500Q135 715 216 909T520 1269T1018 1435Q1081 1435 1151 1426T1289 1396T1406 1344L1408 1332Q1349 1142 1334 1005L1326
997H1271L1262 1005Q1267 1162 1267 1171Q1267 1197 1256 1213T1198 1256T1079 1300T929 1317Q832 1317 750 1291T598 1197T488 1018T431 786T414 552Q414 372 464 277T602 138T804 95Q864 95 925 106T1042 139T1254 253L1276 235Z" />
<glyph unicode="D" glyph-name="null" horiz-adv-x="1593" d="M188 1404L197 1412Q341 1405 524 1405L904 1411Q1160 1411 1292 1344T1484 1151T1545 874Q1545 678 1460 479T1179 136T723 -8Q671 -8 540 -4Q414 0 349 0Q175 0 48 -6L41 1L48 54L58 63L87 71Q149
85 162 100T203 264T300 813T369 1281Q369 1306 357 1317T326 1331T187 1341L180 1349L188 1404ZM434 121L574 102Q670 88 738 88Q850 88 924 118T1054 213T1154 368T1231 603T1264 895Q1264 989 1242 1063T1185 1186T1097 1266T985 1307T840 1318Q721 1318 640
1306Q635 1258 603 1097L516 611Q450 235 434 121Z" />
<glyph unicode="E" glyph-name="null" horiz-adv-x="1251" d="M41 1L48 54L58 63Q136 82 152 92Q160 97 166 106T182 157T255 555L332 1001Q369 1222 369 1281Q369 1306 357 1318T326 1332T187 1341L180 1349L188 1404L197 1412Q356 1405 625 1405Q673 1405 1233
1412L1243 1400Q1241 1376 1214 1230Q1200 1152 1192 1084L1183 1076H1131L1123 1084Q1126 1201 1126 1224Q1126 1254 1119 1265T1084 1286T978 1304T829 1312Q719 1312 647 1300L585 988Q571 918 548 783Q766 778 824 778Q914 778 1018 783L1024 771L998 683L986
674Q800 678 614 683Q579 683 532 681L469 323Q441 168 435 98H601Q727 98 820 104T948 120T998 150T1037 257Q1042 279 1063 343L1071 351H1130L1137 343L1070 2L1059 -7Q899 -4 840 -4L399 0Q247 0 48 -6L41 1Z" />
<glyph unicode="F" glyph-name="null" horiz-adv-x="1139" d="M192 1403L201 1412Q337 1405 512 1405L866 1408Q1000 1408 1202 1412L1211 1400Q1203 1344 1184 1238T1161 1086L1150 1078H1099L1091 1086Q1093 1155 1094 1224Q1094 1254 1089 1264T1061 1285T967
1304T815 1313Q728 1313 653 1302Q635 1246 610 1085Q603 1045 544 709L606 707Q906 707 1022 722L1031 709L1006 615L995 606Q843 610 630 610Q566 610 525 606Q453 182 453 125Q453 93 474 80T535 65L641 60L648 52L642 2L633 -7Q517 0 304 0Q140 0 -10 -7L-17
1L-11 51L-2 60Q7 61 44 63Q131 66 150 81T183 150T292 747Q373 1210 373 1281Q373 1306 360 1317T330 1331T190 1341L184 1349L192 1403Z" />
<glyph unicode="G" glyph-name="null" horiz-adv-x="1593" d="M1334 93L1327 86Q1277 76 1166 38Q1011 -15 918 -29T744 -43Q467 -43 310 98T152 512Q152 661 195 804T316 1051T538 1255T807 1395T1065 1435Q1181 1435 1299 1408T1477 1341L1485 1327L1439 1158Q1421
1094 1407 1001L1398 993H1341L1334 1001Q1342 1110 1342 1192Q1205 1305 992 1305Q858 1305 755 1262T581 1111T469 840T428 520Q428 296 529 177T819 58Q956 58 1059 117L1097 272Q1108 315 1118 381T1129 463Q1129 479 1120 490T1099 505T1029 511T926 515L919
523L929 577L938 586Q1130 579 1217 579Q1259 579 1525 586L1532 577L1524 523L1514 515Q1460 514 1436 505T1399 475T1370 372L1351 285Q1335 207 1332 184T1328 135Q1328 115 1334 93Z" />
<glyph unicode="H" glyph-name="null" horiz-adv-x="1594" d="M1134 793Q1208 1216 1208 1282Q1208 1301 1200 1312T1176 1328T1115 1336L1025 1341L1018 1349L1026 1404L1035 1412Q1151 1405 1316 1405Q1445 1405 1675 1412L1681 1404L1672 1349L1663 1341Q1550
1337 1535 1333T1509 1320T1490 1292Q1478 1262 1448 1107L1319 358Q1288 170 1288 125Q1288 94 1308 81T1374 65L1476 60L1483 52L1477 2L1468 -7Q1352 0 1161 0Q979 0 825 -7L818 1L824 51L833 60Q842 61 879 63Q962 66 979 77T1009 121T1053 327L1118 696L837
697L529 696Q440 194 440 125Q440 94 461 81T525 65L628 60L635 52L629 2L620 -7Q490 0 313 0Q131 0 -23 -7L-30 1L-25 51L-15 60Q-6 61 31 63Q115 66 131 77T161 120T215 385L307 916Q359 1216 359 1281Q359 1301 352 1312T328 1328T267 1336L177 1341L170 1349L178
1404L187 1412Q307 1405 468 1405Q573 1405 827 1412L833 1404L824 1349L815 1341Q705 1337 689 1334T660 1319T635 1272T596 1080L545 793Q743 786 842 786L1134 793Z" />
<glyph unicode="I" glyph-name="null" horiz-adv-x="797" d="M8 -7L1 1L7 51L16 60Q25 61 62 63Q146 66 162 77T192 120T245 383L338 915Q390 1216 390 1281Q390 1299 384 1310T362 1327T300 1336L208 1341L201 1349L209 1403L218 1412Q354 1405 534 1405Q608
1405 858 1412L864 1404L855 1349L846 1341Q732 1337 718 1333Q702 1328 692 1319T673 1291Q660 1259 629 1096L498 337Q471 166 471 125Q471 93 492 80T555 65L659 60L666 52L660 2L651 -7Q535 0 322 0Q158 0 8 -7Z" />
<glyph unicode="J" glyph-name="null" horiz-adv-x="797" d="M239 1341L233 1349L240 1403L250 1412Q386 1405 565 1405Q641 1405 889 1412L896 1404L887 1349L878 1341Q767 1337 751 1333T723 1320T702 1286T666 1125L534 361Q490 93 470 11Q431 -149 358 -259T195
-414T-21 -460Q-67 -460 -110 -450L-126 -404L-117 -387Q-83 -391 -50 -391Q42 -391 84 -365T155 -276T234 87L353 799Q422 1210 422 1279Q422 1305 410 1317T379 1331T239 1341Z" />
<glyph unicode="K" glyph-name="null" horiz-adv-x="1479" d="M560 697Q624 741 710 818T956 1053T1162 1263T1216 1333T1223 1377V1402L1231 1411Q1276 1405 1303 1405Q1445 1405 1548 1411L1556 1402L1547 1346L1538 1338Q1471 1336 1449 1330T1398 1306T1262
1197T1041 996L812 780L1205 221Q1287 104 1314 84T1418 60L1425 52L1420 1L1409 -8L1379 -7Q1247 0 1170 0Q1118 0 1045 -8Q905 208 814 340T557 684L508 392Q485 256 478 200T471 125Q471 93 492 80T553 65L659 60L666 52L660 2L651 -7Q535 0 322 0Q158 0 8 -7L1
1L7 51L16 60Q25 61 62 63Q146 66 162 77T192 120T245 383L338 915Q390 1216 390 1281Q390 1299 384 1310T362 1327T300 1336L208 1341L201 1349L209 1403L218 1412Q354 1405 534 1405Q608 1405 858 1412L864 1404L855 1349L846 1341Q736 1337 720 1334T691 1319T666
1270T622 1053L560 697Z" />
<glyph unicode="L" glyph-name="null" horiz-adv-x="1251" d="M79 1L86 54L96 63Q171 81 186 90Q195 95 199 100T209 117Q223 155 249 306L376 1052Q405 1235 405 1281Q405 1306 392 1317T361 1331T222 1341L216 1349L223 1403L233 1412Q374 1405 549 1405Q596
1405 872 1412L878 1404L870 1349L861 1341Q749 1337 733 1333T703 1317T677 1257T630 1019L504 303Q478 166 473 98H639Q765 98 858 104T986 120T1036 150T1075 257Q1080 279 1101 343L1109 351H1168L1175 343Q1172 319 1156 244Q1143 184 1131 116Q1116 34 1108
2L1097 -7Q929 -4 852 -4L448 0Q217 0 86 -6L79 1Z" />
<glyph unicode="M" glyph-name="null" horiz-adv-x="1933" d="M1550 1411Q1697 1401 1720 1401L2003 1411L2011 1403L2005 1350L1993 1341Q1983 1340 1944 1336T1883 1326T1849 1305T1827 1258T1801 1141L1661 336Q1632 157 1632 125Q1632 96 1649 84T1716 68L1810
59L1817 51L1808 0L1798 -6Q1641 0 1491 0Q1349 0 1192 -6L1184 2L1190 51L1198 57Q1308 73 1330 79T1367 138T1415 381L1491 825L1548 1196Q1127 522 913 139L815 -37H760L632 489L471 1124L319 512Q238 178 238 130Q238 93 255 80T399 59L408 51L401 2L393 -6Q289
0 176 0Q62 0 -37 -6L-45 2L-41 51L-31 59Q66 70 82 89T141 250T246 629L362 1067Q403 1225 403 1262Q403 1317 349 1326T213 1339L207 1350L213 1401L221 1409Q375 1403 455 1403Q545 1403 662 1409L770 961L922 358Q1006 494 1024 524L1413 1176L1550 1411Z"
/>
<glyph unicode="N" glyph-name="null" horiz-adv-x="1593" d="M1225 291Q1386 1181 1386 1274Q1386 1310 1362 1323T1302 1337T1212 1343L1204 1354L1214 1403L1223 1411H1276Q1448 1405 1487 1405Q1519 1405 1681 1411L1690 1403L1686 1352L1675 1343Q1585 1341
1568 1337T1532 1308T1473 1082L1335 373Q1304 212 1274 -16H1098L463 1108Q301 254 301 131Q301 90 329 78T389 65T475 59L481 51L473 0L465 -6H412Q218 0 190 0Q149 0 4 -8L-2 0L2 51L10 59Q109 63 123 69T151 90T178 165L220 359Q248 493 269 605L383 1227Q330
1307 305 1319T141 1343L135 1352L141 1403L154 1411Q240 1406 299 1407L582 1411L764 1087L1225 291Z" />
<glyph unicode="O" glyph-name="null" horiz-adv-x="1706" d="M153 531Q153 609 175 740T266 1007T445 1241T693 1387T995 1435Q1122 1435 1237 1402T1445 1286T1576 1092T1615 839Q1615 470 1385 213T767 -44Q572 -44 432 24T223 219T153 531ZM433 468Q433 339
471 243T604 98T809 48Q970 48 1075 142T1257 470T1334 915Q1334 1146 1232 1243T966 1341Q814 1341 718 1271T553 1049T459 737T433 468Z" />
<glyph unicode="P" glyph-name="null" horiz-adv-x="1366" d="M239 1412Q359 1405 533 1405Q679 1405 820 1410Q901 1412 964 1412Q1107 1412 1190 1374T1324 1256T1374 1068Q1374 863 1224 720T868 577Q771 577 665 615L656 679L662 687Q738 659 807 659Q896
659 964 716T1067 868T1102 1061Q1102 1186 1037 1252T842 1318Q796 1318 691 1302Q654 1121 626 955L560 576Q522 362 495 166Q492 145 492 125Q492 98 508 84T574 66L680 60L687 52L681 2L672 -7Q526 0 365 0Q174 0 29 -7L22 1L28 51L37 60Q46 61 83 63Q167 66
184 77T213 119T267 387L360 920Q411 1216 411 1281Q411 1299 405 1310T383 1327T321 1336L229 1341L222 1349L230 1403L239 1412Z" />
<glyph unicode="Q" glyph-name="null" horiz-adv-x="1706" d="M610 -31Q393 5 273 147T153 523Q153 674 200 844T357 1150T628 1360T995 1435Q1191 1435 1332 1363T1544 1163T1615 839Q1615 588 1507 387T1213 71T769 -44Q708 -44 649 -36Q754 -63 989 -168Q1125
-229 1203 -254T1340 -280Q1370 -280 1401 -264T1457 -212T1501 -102L1510 -96L1559 -113L1564 -122Q1530 -275 1453 -369T1265 -464Q1221 -464 1178 -452T1092 -420T951 -344Q742 -223 661 -186T514 -148Q452 -148 408 -198T362 -352L352 -359L309 -331L302 -317Q301
-306 301 -302Q301 -220 341 -154T443 -58T560 -28Q577 -28 610 -31ZM433 468Q433 339 471 243T604 98T809 48Q970 48 1075 142T1257 470T1334 915Q1334 1146 1232 1243T966 1341Q814 1341 718 1271T553 1049T459 737T433 468Z" />
<glyph unicode="R" glyph-name="null" horiz-adv-x="1479" d="M1196 279Q1274 144 1296 114T1336 74T1421 59L1430 51L1425 2L1415 -6Q1341 0 1245 0Q1151 0 1053 -6Q780 517 635 733L643 766Q672 764 702 764Q877 764 977 851T1077 1104Q1077 1321 829 1321Q724
1321 668 1305L535 535Q475 193 475 145V123Q475 96 490 83T559 66L664 59L670 51L664 2L655 -6Q489 0 326 0Q163 0 12 -6L4 0L10 51L20 59L68 63Q127 66 155 70T204 157T250 383L342 913Q393 1209 393 1280Q393 1314 376 1323T303 1335L213 1341L205 1350L213
1403L223 1411Q350 1405 539 1405L934 1413Q1192 1413 1270 1323T1348 1120Q1348 990 1253 885T928 733L1196 279Z" />
<glyph unicode="S" glyph-name="null" horiz-adv-x="1139" d="M1032 1045L1022 1037H974L966 1046Q968 1082 968 1100L966 1203Q931 1256 858 1286T700 1317Q619 1317 551 1286T447 1187T411 1039Q411 977 433 937T490 874T565 837T721 801Q823 781 875 761T964
706T1021 615T1043 489Q1043 354 960 229T746 31T452 -43Q351 -43 256 -14T97 63L93 75Q102 106 121 224T143 374L154 383H201L209 375L207 263Q207 249 209 206Q237 159 326 115T517 71Q671 71 747 157T824 352Q824 401 808 440T767 500T711 534T611 562Q449 601
377 633T260 738T216 924Q216 1076 299 1192T506 1371T773 1435Q952 1435 1081 1346L1085 1335Q1050 1192 1032 1045Z" />
<glyph unicode="T" glyph-name="null" horiz-adv-x="1251" d="M237 60Q247 61 284 63Q366 66 381 75T411 113T471 405L555 892L624 1298Q488 1298 421 1296T315 1285T268 1270T248 1241T219 1157T194 1057L185 1049H127L120 1058Q145 1193 169 1400L181 1412Q203
1412 318 1406Q535 1396 759 1396Q896 1396 1090 1400T1362 1412L1377 1395Q1319 1109 1316 1057L1307 1049H1248L1241 1057Q1250 1139 1250 1207Q1250 1260 1238 1274T1166 1294T1004 1299L892 1298L812 877L721 342Q700 213 694 156Q693 138 693 125Q693 98 709
84T775 66L881 60L888 52L882 2L873 -7Q756 0 544 0Q388 0 230 -7L223 1L228 51L237 60Z" />
<glyph unicode="U" glyph-name="null" horiz-adv-x="1593" d="M1319 127Q1319 93 1336 81T1397 66L1505 59L1511 51L1505 2L1497 -8Q1333 0 1280 0L1040 -4L1030 8Q1067 171 1079 260Q907 78 795 19T563 -41Q369 -41 284 53T198 271Q198 398 271 801T344 1276Q344
1304 327 1319T170 1341L162 1350L170 1403L184 1411Q267 1411 348 1409L510 1405Q574 1405 645 1411L657 1395Q639 1317 612 1174L551 854L492 506Q471 383 471 330Q471 227 537 179T694 131Q769 131 838 163T980 261T1074 359T1110 483L1212 1106Q1237 1250 1237
1276Q1237 1316 1213 1325T1053 1341L1047 1350L1055 1403L1065 1411Q1221 1405 1380 1405Q1449 1405 1704 1411L1710 1405L1702 1350L1692 1339Q1572 1336 1560 1333T1533 1316T1502 1230T1464 1036L1343 336Q1314 169 1319 127Z" />
<glyph unicode="V" glyph-name="null" horiz-adv-x="1366" d="M512 -15Q508 30 454 379L386 812L312 1245Q303 1294 295 1309Q291 1317 284 1323T264 1333Q242 1340 150 1341L142 1350L150 1403L162 1412L403 1406L738 1412L745 1403L738 1354L729 1345Q624 1341
603 1327T582 1285Q582 1215 606 1060L725 282L959 712Q996 781 1060 906T1178 1145T1236 1278T1242 1306Q1242 1325 1218 1332T1081 1345L1074 1354L1081 1404L1091 1412Q1093 1412 1148 1410Q1245 1407 1280 1407L1516 1412L1525 1402L1517 1349L1508 1341Q1463
1341 1442 1335T1406 1311T1336 1190L837 286Q694 27 681 -15H512Z" />
<glyph unicode="W" glyph-name="null" horiz-adv-x="2048" d="M1823 981Q1915 1216 1915 1284Q1915 1318 1889 1329T1749 1341L1743 1350L1749 1403L1759 1413Q1935 1405 2003 1405Q2096 1405 2185 1411L2193 1403L2189 1350L2181 1339Q2103 1339 2087 1321T2005
1139L1661 291Q1616 182 1540 -16H1368Q1337 121 1300 260L1102 1012L598 -16H428L377 582Q349 888 328 1065T296 1283T264 1330T152 1341L143 1350L152 1405L162 1413L463 1407Q648 1407 737 1413L745 1405L737 1350L729 1341Q630 1341 602 1326T573 1255Q573
1186 592 977L651 303L844 698L1188 1419H1253L1554 274L1823 981Z" />
<glyph unicode="X" glyph-name="null" horiz-adv-x="1479" d="M1062 1412Q1168 1404 1266 1404L1578 1412L1584 1404L1577 1350L1567 1341Q1476 1340 1453 1330T1359 1252T1114 997L911 780L1101 401Q1247 109 1270 90T1409 62L1416 53L1408 2L1398 -6L1082 0Q1057
0 783 -6L777 1L785 53L795 61Q893 63 920 74T947 109Q947 121 940 144T886 262L800 437L726 580L543 375Q498 326 433 244T358 144T349 115Q349 87 384 74T525 60L531 51L525 2L513 -7L444 -5Q278 0 203 0Q98 0 -12 -7L-19 1L-11 52L-2 60Q83 62 114 75T201 150L678
668L476 1070Q458 1106 408 1199T340 1310T305 1333T171 1341L163 1350L172 1404L180 1412L537 1406Q671 1406 823 1412L829 1404L821 1349L812 1341L745 1339Q690 1336 678 1327T665 1300Q665 1255 795 1002L865 864L1026 1047L1102 1139Q1145 1189 1178 1234T1215
1289T1219 1306Q1219 1322 1195 1330T1051 1341L1044 1350L1052 1404L1062 1412Z" />
<glyph unicode="Y" glyph-name="null" horiz-adv-x="1251" d="M297 60Q310 61 343 63Q419 66 435 73T465 102T495 213L529 392Q546 481 546 504Q546 561 484 774T373 1084T281 1207T187 1235Q157 1235 124 1218L115 1227V1272L123 1286Q177 1325 221 1363Q289
1423 295 1426Q338 1432 355 1432Q404 1432 452 1411T550 1318T645 1102T724 787Q753 647 759 622Q811 746 845 816T949 1002T1094 1211T1218 1345T1303 1397T1378 1412L1366 1226Q1308 1215 1259 1184Q1195 1143 1115 1049T957 817T843 587T779 333T752 126Q752
93 774 80T833 65L940 60L947 52L941 2L932 -7Q816 0 603 0Q447 0 289 -7L282 1L287 51L297 60Z" />
<glyph unicode="Z" glyph-name="null" horiz-adv-x="1366" d="M676 100Q989 100 1135 135Q1146 154 1156 176T1178 223T1199 277T1227 363L1237 373H1292L1303 362Q1256 184 1223 0L1212 -8Q1184 -10 1151 -10Q1131 -10 1077 -8L915 -2Q872 0 688 0H319Q174 0
10 -8L2 2L12 57Q31 71 176 252L432 569L1010 1300H752Q601 1300 535 1296T411 1285T346 1271T316 1206T272 1067L260 1057H205L197 1065Q246 1334 252 1399L264 1413Q578 1405 920 1405Q1036 1405 1380 1411L1389 1403L1380 1348Q1227 1171 1085 991L387 102L676
100Z" />
<glyph unicode="[" glyph-name="null" horiz-adv-x="682" d="M784 1411Q734 1411 617 1404Q588 1402 576 1395T556 1357L527 1207Q493 1028 464 840L365 145Q342 -24 342 -92Q342 -129 375 -138T569 -154L575 -164L567 -215L557 -223Q496 -217 279 -217Q150 -217
98 -223L86 -211Q120 -70 207 490T342 1468L358 1481Q469 1475 567 1475Q682 1475 797 1483L803 1473L795 1417L784 1411Z" />
<glyph unicode="\" glyph-name="null" horiz-adv-x="1241" d="M956 -56L950 -65H829L818 -56L294 1499L301 1508H421L432 1499L956 -56Z" />
<glyph unicode="]" glyph-name="null" horiz-adv-x="682" d="M262 373L371 1112Q397 1306 393 1350Q393 1388 351 1399T164 1411L158 1421L166 1473L178 1483Q233 1477 455 1477Q578 1477 635 1481L647 1470Q622 1372 533 746T402 -214L388 -228Q263 -217 168
-217Q75 -217 -63 -223L-70 -213L-61 -160L-53 -154Q-35 -154 53 -150T155 -138T179 -98T262 373Z" />
<glyph unicode="^" glyph-name="null" horiz-adv-x="1024" d="M993 661H794L512 1212L230 661H31L418 1419H606L993 661Z" />
<glyph unicode="_" glyph-name="null" horiz-adv-x="1022" d="M0 -256V-153H1022V-256H0Z" />
<glyph unicode="`" glyph-name="null" horiz-adv-x="682" d="M682 1119L625 1091Q577 1138 502 1209T354 1343L200 1474L210 1497L222 1502L444 1475L457 1465Q519 1365 678 1132L682 1119Z" />
<glyph unicode="a" glyph-name="null" horiz-adv-x="1139" d="M1042 213L1064 174L1060 161Q879 28 812 -9T699 -46Q667 -46 649 -19T630 49Q630 91 646 171T715 462Q547 174 413 64T194 -47Q148 -47 115 -6T81 142Q81 236 109 361T188 614Q214 678 249 717T403
843T570 947T682 965Q726 965 786 952T896 912L988 966L1021 942Q996 883 960 724L886 386Q847 206 847 166Q847 127 873 127Q905 127 1030 213H1042ZM761 810Q672 855 597 855Q519 855 471 793T367 517T311 200Q311 125 351 125Q393 125 501 251T678 530T761 810Z"
/>
<glyph unicode="b" glyph-name="null" horiz-adv-x="1100" d="M543 1495L568 1473Q462 1027 384 638Q505 815 639 894T883 974Q962 974 994 902T1026 722Q1026 556 958 377T704 77T362 -43Q282 -43 222 -17T135 62T108 180Q108 230 117 295T164 561Q289 1247 289
1288Q289 1312 276 1324T230 1338T128 1340L119 1349L126 1392L136 1401Q354 1428 543 1495ZM331 234Q331 141 372 98T474 55Q526 55 581 95T682 225T760 441T791 662Q791 747 768 788T706 830Q674 830 619 799T506 704T412 565T353 402T331 234Z" />
<glyph unicode="c" glyph-name="null" horiz-adv-x="909" d="M810 229L833 187L830 175Q659 52 549 3T341 -46Q263 -46 199 -9T108 95T80 235Q80 325 100 426T152 601T213 713T282 779T423 870Q496 917 523 931T593 955T685 966Q781 966 897 917L900 906Q885 870
864 780T835 633L824 624H773L766 633Q774 687 774 732Q774 741 773 762Q687 837 589 837Q518 837 477 811T409 732T348 541T314 292Q314 202 355 147T468 92Q527 92 599 118T799 229H810Z" />
<glyph unicode="d" glyph-name="null" horiz-adv-x="1139" d="M694 1340L686 1349L692 1392L702 1401Q918 1428 1109 1495L1134 1473L1062 1161Q1033 1026 948 605Q886 296 876 219Q871 180 871 162Q871 128 892 128Q917 128 1033 213L1045 212L1066 173L1063
160Q877 19 820 -10T723 -40Q688 -40 669 -11T649 56Q649 112 687 261Q706 338 737 473Q623 255 465 106T208 -43Q149 -43 115 11T81 158Q81 282 113 417T188 641T263 759T400 857T559 945T672 965Q728 965 809 944L841 1155Q855 1248 855 1286Q855 1313 842 1325T797
1338T694 1340ZM784 824Q711 859 612 859Q535 859 499 833T417 685T343 429T315 197Q315 126 352 126Q386 126 438 166T567 308T696 525T766 735L784 824Z" />
<glyph unicode="e" glyph-name="null" horiz-adv-x="909" d="M775 228L798 187L795 175Q619 50 511 4T319 -43Q246 -43 182 -12T91 77T63 201Q63 309 104 478T210 729T417 893T664 975Q751 975 806 931T861 803Q861 701 800 619T598 480T307 398Q296 325 296 264Q296
166 342 131T446 95Q487 95 540 110T628 145T764 229L775 228ZM315 453Q523 499 595 595T667 776Q667 824 639 850T570 877Q488 877 428 791T315 453Z" />
<glyph unicode="f" glyph-name="null" horiz-adv-x="682" d="M101 840L108 876L119 887Q142 895 210 915Q278 935 315 952Q318 959 328 1007Q345 1081 358 1113T403 1185T520 1296T677 1419T786 1485T867 1499Q914 1499 957 1482Q918 1349 900 1223L870 1216Q793
1334 716 1334Q688 1334 664 1317T626 1270T587 1137T545 936H568Q588 936 679 941T799 952L809 936Q788 879 780 841L769 831Q734 833 631 833Q548 833 524 831L446 484Q398 270 352 106Q291 -114 233 -227T84 -431T-78 -556Q-123 -577 -164 -577Q-200 -577 -240
-559Q-192 -435 -174 -337L-142 -331Q-103 -422 -42 -422Q-21 -422 -2 -412T35 -377T77 -254T139 35L213 422L291 831Q234 833 200 833Q148 833 108 831L101 840Z" />
<glyph unicode="g" glyph-name="null" horiz-adv-x="1024" d="M291 23Q237 71 237 124Q237 136 241 149T248 166T264 178Q397 259 428 285L390 284Q274 284 193 345T112 540Q112 607 132 668T186 778T255 851T362 908T491 958T588 976Q621 976 653 972T698 963T748
944L778 933Q781 931 838 928T925 925Q951 925 1013 929Q1057 932 1070 932L1081 916L1058 811Q1039 815 981 818T915 821Q905 821 881 819Q904 767 904 703Q904 633 879 564T819 451T737 379T606 319Q550 297 523 283T480 248T463 213Q463 193 481 169T601 75Q746
-26 794 -84T843 -225Q843 -382 691 -477T324 -572Q194 -572 94 -540T-54 -445T-102 -312Q-102 -225 -26 -142T229 2L291 23ZM324 543Q324 441 366 398T475 355Q544 355 590 403T660 536T684 702Q684 803 640 844T533 885Q433 885 379 780T324 543ZM335 -16L246
-60Q202 -83 174 -104T124 -153T91 -215T80 -283Q80 -351 116 -397T218 -469T364 -496Q487 -496 559 -439T631 -300Q631 -253 595 -209T335 -16Z" />
<glyph unicode="h" glyph-name="null" horiz-adv-x="1139" d="M545 1495L570 1473Q425 858 354 513Q491 730 655 853T923 977Q1006 977 1006 890Q1006 842 993 782T915 489Q845 235 845 174Q845 130 873 130Q892 130 919 146T1013 211L1025 210L1046 175L1043
161Q873 33 798 -5T678 -43Q649 -43 628 -19T606 60Q606 98 614 142T661 328Q758 690 758 740Q758 785 720 785Q690 785 643 756Q568 709 491 608T361 384Q327 303 289 156Q265 61 265 4Q234 4 162 -11T53 -36L33 -17Q99 201 168 566T267 1120L284 1225Q292 1270
292 1288Q292 1311 279 1324T232 1338T131 1340L122 1349L129 1392L138 1401Q354 1428 545 1495Z" />
<glyph unicode="i" glyph-name="null" horiz-adv-x="682" d="M393 1285Q393 1347 432 1391T532 1435Q584 1435 614 1404T644 1322Q644 1261 608 1212T507 1162Q446 1162 420 1197T393 1285ZM79 679L59 714L61 727Q237 864 335 921T489 978Q514 978 532 957T550
902Q550 858 535 791T469 537Q382 215 382 164Q382 150 390 140T410 129Q440 129 570 222L582 221L604 181L600 168Q530 118 433 54T295 -27T222 -43Q183 -43 164 -14T145 61Q145 107 156 165T206 368Q290 689 290 746Q290 774 267 774Q229 774 93 678L79 679Z"
/>
<glyph unicode="j" glyph-name="null" horiz-adv-x="682" d="M423 1285Q423 1348 462 1391T563 1435Q615 1435 644 1404T674 1322Q674 1257 637 1210T537 1162Q479 1162 451 1196T423 1285ZM-120 -571Q-103 -511 -99 -406L-71 -400Q-37 -448 -15 -458T26 -469Q44
-469 58 -458Q80 -440 95 -392Q121 -307 203 95L290 540Q321 702 321 743Q321 775 299 775Q261 775 122 678L109 679L88 714L90 727Q302 888 387 933T526 978Q579 978 579 895Q579 842 531 631L463 335Q403 82 359 -72T266 -312T128 -488Q70 -548 32 -565T-53 -582Q-88
-582 -120 -571Z" />
<glyph unicode="k" glyph-name="null" horiz-adv-x="1139" d="M193 1340L184 1349L191 1392L200 1401Q418 1428 607 1495L632 1473Q582 1273 411 457Q415 461 488 550Q582 665 654 743T801 877T931 955T1048 976Q1075 976 1103 970L1107 958Q1077 857 1070 806L1059
798Q1000 817 968 817Q903 817 823 779T669 655Q680 623 738 462T834 226T888 139T921 125Q959 125 1064 197L1075 196L1097 157L1094 143Q1054 118 1014 90Q823 -43 758 -43Q740 -43 725 -35T689 3T643 96T569 292T503 476Q447 418 425 385T392 324T365 212T342
89T336 8Q235 3 109 -32L92 -7Q176 286 265 764T354 1288Q354 1312 341 1324T299 1337T193 1340Z" />
<glyph unicode="l" glyph-name="null" horiz-adv-x="682" d="M576 221L599 182L595 169Q373 12 314 -15T217 -43Q174 -43 156 -9T138 71Q138 162 198 436L337 1071Q349 1123 361 1196T374 1288Q374 1310 362 1323T315 1338T213 1340L205 1349L211 1392L221 1401Q439
1428 628 1495L653 1473Q568 1119 486 727L390 274Q377 213 377 176Q377 133 404 133Q443 133 565 222L576 221Z" />
<glyph unicode="m" glyph-name="null" horiz-adv-x="1706" d="M105 -38L85 -9Q86 -5 109 68Q158 225 205 444T253 737Q253 757 244 769T223 782Q212 782 193 770T80 687L66 688L46 723L47 737Q119 798 215 871T357 963T433 982Q459 982 473 963T488 918Q488 887
474 818T392 451Q523 695 687 838T953 982Q984 982 1004 960T1024 901Q1024 872 1015 819T981 666L926 451Q1053 704 1227 840T1512 977Q1548 977 1566 949T1584 879Q1584 808 1547 667Q1432 238 1432 164Q1432 130 1455 130Q1482 130 1608 222L1620 221L1642 182L1639
169Q1472 47 1393 2T1264 -43Q1230 -43 1210 -17T1189 46Q1189 91 1206 171T1269 423Q1310 582 1321 639T1333 727Q1333 774 1301 774Q1277 774 1230 745T1113 638T989 457T894 197T854 -9Q782 -9 642 -38L618 -9Q675 135 734 390T794 734Q794 755 785 766T761
777Q735 777 686 745T565 619T442 426T359 191T324 1Q259 1 105 -38Z" />
<glyph unicode="n" glyph-name="null" horiz-adv-x="1139" d="M88 -37L62 -12Q93 66 142 248T213 566T236 738Q236 772 213 772Q182 772 69 688L55 689L35 724L36 737Q88 781 157 834T282 923T366 968T417 978Q472 978 472 913Q472 866 454 777T379 472Q492 681
663 829T942 977Q1027 977 1027 882Q1027 830 1004 734T930 450Q896 326 884 257T871 167Q871 130 895 130Q934 130 1042 212L1054 211L1076 172L1073 159Q902 30 828 -6T701 -43Q659 -43 645 -11T630 57Q630 138 700 387Q777 657 777 732Q777 773 738 773Q720
773 689 757T597 679T486 537T398 366T335 169T304 1Q177 -9 88 -37Z" />
<glyph unicode="o" glyph-name="null" horiz-adv-x="1139" d="M101 280Q101 373 132 513T240 748T447 910T715 978Q857 978 946 897T1035 654Q1035 507 980 354T834 129T642 8T413 -43Q291 -43 223 4T128 125T101 280ZM337 288Q337 166 383 111T515 56Q574 56
620 89T706 207T770 420T795 651Q795 782 744 834T620 886Q543 886 485 827T382 597T337 288Z" />
<glyph unicode="p" glyph-name="null" horiz-adv-x="1139" d="M54 723L55 737Q133 803 218 867T350 957T433 983Q496 983 496 916Q496 880 478 790T419 544Q502 674 568 750T748 902T951 978Q988 978 1013 954T1055 864T1071 732Q1071 609 1022 458T922 237Q878
175 774 104T601 -1T437 -34Q372 -34 321 -21Q298 -117 267 -260T230 -435T222 -528Q198 -529 103 -546T-6 -571L-27 -555L64 -211Q111 -20 179 302T259 702Q262 723 262 738Q262 757 253 769T232 782Q220 782 195 766T89 687L75 688L54 723ZM345 121Q442 67 538
67Q584 67 620 87T692 165T759 319T812 507T834 694Q834 758 823 784T783 811Q755 811 702 783T584 683T469 517T402 361T345 121Z" />
<glyph unicode="q" glyph-name="null" horiz-adv-x="1100" d="M466 -571L447 -533Q480 -506 486 -499T502 -467T523 -390Q528 -361 545 -290L612 8L665 247L700 399Q559 191 411 78T171 -36Q119 -36 94 16T69 140Q69 219 91 333T158 562T239 717T387 838T550 948T682
977Q803 977 916 921L1012 979L1047 958Q1034 929 1025 903Q1009 854 972 691T880 260L788 -172Q744 -382 734 -450Q731 -475 731 -498Q731 -504 734 -528Q662 -528 466 -571ZM779 822Q744 845 696 856T614 867Q553 867 508 843T414 691T331 409T297 201Q297 129
342 129Q372 129 431 171T583 333T714 556T779 822Z" />
<glyph unicode="r" glyph-name="null" horiz-adv-x="797" d="M119 -38L98 -13Q177 254 212 449T248 725Q248 776 225 776Q197 776 89 695L74 696L55 729L56 743Q230 887 308 933T423 979Q452 979 467 957T482 903Q482 869 474 829T398 500H412Q459 610 512 708T616
868T705 951T786 971Q813 971 838 964L845 954Q830 908 817 821T804 683L781 668Q734 711 676 711Q627 711 584 678T487 543T395 300T338 5Q286 -4 225 -12T119 -38Z" />
<glyph unicode="s" glyph-name="null" horiz-adv-x="909" d="M103 295H148L157 286L160 197Q199 149 268 114T415 78Q469 78 513 94T580 151T602 233Q602 271 584 299T534 343T434 375Q333 398 292 410T218 449T164 521T142 621Q142 675 162 724T220 809T342 897T471
963T581 978Q716 978 830 914Q810 818 795 680L786 672H742L733 680L722 772Q677 816 615 840T494 864Q424 864 377 824T330 719Q330 650 377 620T559 563Q653 545 698 524T774 452T804 336Q804 267 775 214T657 91T501 -7T327 -35Q273 -35 217 -27T59 21L55 31Q65
65 78 155T94 286L103 295Z" />
<glyph unicode="t" glyph-name="null" horiz-adv-x="797" d="M316 831H107L100 841L106 876L118 888Q201 907 343 955Q345 978 357 1052Q377 1163 377 1238Q437 1251 558 1295Q613 1315 626 1319L649 1294Q617 1196 558 938H661Q781 938 830 946L841 930Q827 884
818 834L805 824Q731 831 643 831H536Q519 747 496 640L454 444L423 292Q411 228 409 209T406 175Q406 149 419 136T453 123Q471 123 492 131T549 162T674 247L688 246L708 207L706 195Q476 27 404 -8T287 -43Q229 -43 200 -7T170 87Q170 124 180 179T236 443Q314
803 316 831Z" />
<glyph unicode="u" glyph-name="null" horiz-adv-x="1139" d="M69 716L53 754L55 768Q196 871 289 924T438 978Q503 978 503 899Q503 861 492 804T447 621L363 285Q348 215 348 186Q348 144 383 144Q405 144 448 172T576 310Q642 394 697 506T792 772Q813 856
819 930Q922 936 1037 970L1054 952Q993 756 931 505T868 178Q868 141 897 141Q914 141 933 152T980 185Q1011 207 1032 222H1044L1066 183L1063 170Q858 16 803 -12T707 -40Q676 -40 659 -18T642 44Q642 104 693 300L732 452Q636 265 472 109T207 -47Q164 -47
137 -17T110 72Q110 111 118 155T163 334Q249 656 249 744Q249 786 220 786Q208 786 192 779T83 714L69 716Z" />
<glyph unicode="v" glyph-name="null" horiz-adv-x="1139" d="M57 694L139 955Q224 970 252 970Q291 970 341 965Q463 955 522 955Q612 955 650 983L678 944Q626 887 559 772T455 532T418 294Q418 189 455 140T553 91Q641 91 721 179T854 423T907 690Q907 809
819 809Q792 809 763 791L749 795L737 821L740 834Q770 856 812 900T867 967Q891 974 912 974Q1062 974 1062 768Q1062 592 955 389T708 71T439 -43Q331 -43 262 31T193 249Q193 329 216 411T299 582T530 843Q488 834 461 830T338 825L248 827Q238 827 182 822L117
693L106 685H64L57 694Z" />
<glyph unicode="w" glyph-name="null" horiz-adv-x="1706" d="M53 692Q121 880 129 957Q183 969 229 969Q276 969 336 964Q452 953 507 953Q596 953 654 977L683 944Q567 815 487 641T406 300Q406 94 518 94Q545 94 573 109T658 191T757 346T825 525T878 746T905
910V922Q1034 944 1123 976L1149 958Q1012 484 1012 257Q1012 165 1047 128T1129 90Q1173 90 1228 131T1345 262T1441 477T1477 692Q1477 749 1453 783T1382 817Q1354 817 1328 802L1314 804L1299 833L1302 846Q1386 907 1437 963Q1465 971 1487 971Q1555 971 1594
918T1634 766Q1634 622 1564 466T1388 190T1183 14T1001 -43Q926 -43 868 13T810 191Q810 250 828 351L776 259Q751 215 714 167T628 73T537 2T462 -33T394 -43Q304 -43 243 29T182 243Q182 378 246 504T526 844Q446 821 367 821Q357 821 327 823Q273 825 255 825Q216
825 175 818Q153 775 142 748Q120 697 116 690L104 682H61L53 692Z" />
<glyph unicode="x" glyph-name="null" horiz-adv-x="1024" d="M-16 -16Q0 28 10 96T20 175T19 198L69 203L81 139Q111 127 134 127Q169 127 210 152T326 276T423 409Q392 595 376 670T328 769T266 793Q228 793 188 767T128 704L116 700L83 719L81 730Q181 888
197 935Q277 976 348 976Q443 976 492 925T558 811T591 623Q735 834 786 886T878 956T954 974Q983 974 1023 958Q988 873 976 733L933 725L914 782Q893 792 875 792Q821 792 767 744T607 541Q638 337 661 257T708 151T757 126Q802 126 910 219L922 218L945 181L943
169Q768 16 715 -13T621 -43Q575 -43 538 -7T485 91T441 329Q324 159 275 99T194 9T133 -31T71 -43Q51 -43 40 -40T-16 -16Z" />
<glyph unicode="y" glyph-name="null" horiz-adv-x="1139" d="M49 -371L175 -290L205 -302Q203 -323 203 -341Q203 -396 239 -436T336 -476Q370 -476 403 -462T469 -413T535 -313T605 -123T670 114L725 336Q590 140 479 50T308 -40Q268 -40 238 6T208 161Q208
217 246 556Q254 684 254 701Q254 754 246 770T217 787Q185 787 70 703L55 705L36 738L37 754L156 846Q244 915 303 946T402 977Q441 977 462 945T483 851Q483 815 467 662L447 483Q428 308 428 233Q428 168 441 155T464 141Q488 141 538 185T659 344T783 620T854
922L1083 972L1106 953Q1099 939 1058 805T966 473Q901 219 854 72T743 -191T598 -392T430 -524T258 -571Q171 -571 110 -528T49 -393V-371Z" />
<glyph unicode="z" glyph-name="null" horiz-adv-x="1024" d="M54 54L743 780Q668 742 588 742Q534 742 420 757Q324 770 291 770Q271 770 248 767Q236 744 203 667L192 660L150 664L145 673L234 955Q288 974 339 974Q415 974 554 936Q685 899 770 899Q818 899
850 915T908 975L948 959L920 853L254 159Q370 210 443 210Q494 210 597 191Q709 171 753 171Q769 171 801 176L851 286L863 292L901 289L908 281Q871 179 834 -6Q786 -32 716 -32Q664 -32 629 -26T467 13Q327 49 239 49Q139 49 79 -19L54 54Z" />
<glyph unicode="{" glyph-name="null" horiz-adv-x="682" d="M33 607V647Q134 647 175 699Q214 748 230 843L293 1210Q318 1356 365 1408Q421 1470 545 1470H685V1430Q600 1430 548 1368Q508 1319 493 1232L433 878Q413 762 371 710Q324 651 216 627Q351 586 351
463Q351 422 339 352L280 7Q273 -34 273 -66Q273 -117 288 -136Q317 -171 394 -171V-211H252Q197 -211 162 -187Q82 -133 82 -26Q82 10 91 60L154 407Q161 446 161 488Q161 540 134 571Q101 607 33 607Z" />
<glyph unicode="|" glyph-name="null" horiz-adv-x="1024" d="M434 0V1497H591V0H434Z" />
<glyph unicode="}" glyph-name="null" horiz-adv-x="682" d="M699 652V612Q598 612 558 562T502 416L439 49Q414 -97 368 -149Q311 -211 187 -211H47V-171Q132 -171 184 -109Q224 -60 239 27L299 381Q319 497 361 549Q408 608 516 632Q381 673 381 796Q381 837
393 907L452 1252Q459 1293 459 1325Q459 1376 444 1395Q415 1430 338 1430V1470H480Q535 1470 570 1446Q650 1392 650 1285Q650 1249 641 1199L578 852Q571 813 571 771Q571 719 599 689Q631 652 699 652Z" />
<glyph unicode="~" glyph-name="null" horiz-adv-x="1024" d="M989 601Q940 494 876 438Q795 366 719 366Q656 366 560 409Q503 434 411 480Q350 510 316 510Q236 510 135 328L34 440Q151 693 313 693Q376 693 472 650Q529 625 621 579Q682 549 716 549Q797 549
890 717L989 601Z" />
</font>
</defs>
</svg>
