<?xml version="1.0" standalone="no"?>
<!DOCTYPE svg PUBLIC "-//W3C//DTD SVG 1.1//EN" "http://www.w3.org/Graphics/SVG/1.1/DTD/svg11.dtd" >
<svg xmlns="http://www.w3.org/2000/svg" xmlns:xlink="http://www.w3.org/1999/xlink" version="1.1">
<metadata>
Created by FontForge 20170731 at Wed Feb  6 03:45:12 2013
 By Aleksey,,,
Copyright (c) 2012 by TypeTogether. All rights reserved.
</metadata>
<defs>
<font id="AdelleSans-BoldItalic" horiz-adv-x="693" >
  <font-face 
    font-family="Adelle Sans"
    font-weight="700"
    font-style="italic"
    font-stretch="normal"
    units-per-em="1000"
    panose-1="2 0 5 3 0 0 0 2 0 4"
    ascent="750"
    descent="-250"
    x-height="521"
    cap-height="724"
    bbox="-173 -247 1002 937"
    underline-thickness="50"
    underline-position="-150"
    unicode-range="U+000D-2122"
  />
<missing-glyph horiz-adv-x="364" 
d="M33 666h265v-666h-265v666zM265 33v600h-199v-600h199z" />
    <glyph glyph-name=".notdef" horiz-adv-x="364" 
d="M33 666h265v-666h-265v666zM265 33v600h-199v-600h199z" />
    <glyph glyph-name=".null" horiz-adv-x="0" 
 />
    <glyph glyph-name=".null" horiz-adv-x="0" 
 />
    <glyph glyph-name="nonmarkingreturn" unicode="&#xd;" horiz-adv-x="333" 
 />
    <glyph glyph-name="space" unicode=" " horiz-adv-x="174" 
 />
    <glyph glyph-name="exclam" unicode="!" horiz-adv-x="289" 
d="M60 196l55 528h164l-93 -528h-126zM194 79q0 -43 -25 -67q-26 -24 -75 -24q-80 0 -80 65q0 93 102 93q79 0 79 -67h-1z" />
    <glyph glyph-name="quotedbl" unicode="&#x22;" horiz-adv-x="428" 
d="M52 465l36 259h135l-36 -259h-135zM248 465l36 259h135l-36 -259h-135z" />
    <glyph glyph-name="numbersign" unicode="#" horiz-adv-x="606" 
d="M246 0l41 139h-86l-41 -139h-104l40 139h-99l36 102h93l34 113h-100l36 102h94l38 135h104l-38 -135h86l38 135h104l-39 -135h102l-35 -102h-97l-32 -113h101l-35 -102h-96l-41 -139h-104zM350 354h-86l-34 -113h87z" />
    <glyph glyph-name="dollar" unicode="$" horiz-adv-x="547" 
d="M296 596q-45 0 -73 -21t-28 -59q0 -40 27 -61q26 -20 88 -43q84 -31 114 -50q72 -48 72 -140q0 -96 -67 -156q-68 -61 -165 -68l-11 -80h-128l13 84q-157 37 -160 199l134 22q6 -117 118 -117q51 0 83 24t32 68q0 26 -17 46q-16 19 -35 27q-18 7 -57 21q-4 2 -7 2.5
t-5 1.5q-33 10 -52 18q-20 8 -47 24q-29 17 -44 35t-27 48t-12 69q0 86 57 143q58 58 148 74l13 85h128l-12 -88q146 -33 146 -190l-136 -14q0 98 -87 98z" />
    <glyph glyph-name="percent" unicode="%" horiz-adv-x="845" 
d="M203 375q-153 0 -153 149q0 96 50 155t150 59q151 0 151 -149q0 -94 -51 -154t-146 -60h-1zM213 457q73 0 73 131q0 67 -45 67q-75 0 -75 -130q0 -68 47 -68zM83 -14l542 738h132l-541 -738h-133zM604 -13q-154 0 -154 149q0 95 50 154q49 58 150 58q151 0 151 -148
q0 -93 -51 -153t-146 -60zM614 69q73 0 73 131q0 66 -46 66q-75 0 -75 -129q0 -68 48 -68z" />
    <glyph glyph-name="ampersand" unicode="&#x26;" horiz-adv-x="752" 
d="M575 580q0 -70 -47 -120t-155 -89q49 -95 108 -165q37 56 50 153h134q-18 -136 -95 -224q31 -23 66 -24q18 0 39 6l13 -109q-35 -16 -90 -16q-80 0 -152 48q-77 -51 -204 -51q-109 0 -169 51t-60 131q0 155 178 225q-23 51 -23 102q0 95 69 149t173 54q69 0 116 -30
t47 -94zM230 308q-57 -42 -57 -112q0 -47 30 -74t84 -27q38 0 76 18q-78 85 -132 195h-1zM323 525q0 -32 16 -74q60 26 83 49q24 24 24 60q0 48 -49 48q-32 0 -53 -21t-21 -61v-1z" />
    <glyph glyph-name="quotesingle" unicode="'" horiz-adv-x="232" 
d="M52 465l36 259h135l-36 -259h-135z" />
    <glyph glyph-name="parenleft" unicode="(" horiz-adv-x="363" 
d="M121 -151q-93 166 -93 357q0 148 57 270q56 120 161 249h167q-53 -66 -88 -118q-35 -51 -69 -117q-35 -66 -51 -136q-16 -68 -16 -150q0 -170 90 -357z" />
    <glyph glyph-name="parenright" unicode=")" horiz-adv-x="363" 
d="M218 722q93 -167 93 -357q0 -149 -57 -270q-58 -123 -160 -249h-167q53 66 88 118q34 51 69 117t51 136q17 73 17 150q0 169 -90 357z" />
    <glyph glyph-name="asterisk" unicode="*" horiz-adv-x="476" 
d="M326 630l119 29l12 -70l-114 -54l56 -109l-60 -44l-83 91l-109 -93l-56 44l86 111l-101 53l32 70l114 -28l34 125h72z" />
    <glyph glyph-name="plus" unicode="+" horiz-adv-x="570" 
d="M191 121l20 144h-133l16 116h133l20 140h120l-20 -140h134l-16 -116h-134l-20 -144h-120z" />
    <glyph glyph-name="comma" unicode="," horiz-adv-x="284" 
d="M63 130h158l-136 -266l-120 13z" />
    <glyph glyph-name="hyphen" unicode="-" horiz-adv-x="312" 
d="M5 229l18 125h271l-18 -125h-271z" />
    <glyph glyph-name="period" unicode="." horiz-adv-x="278" 
d="M198 90q0 -102 -105 -102q-83 0 -83 71q0 102 107 102q81 0 81 -71z" />
    <glyph glyph-name="slash" unicode="/" horiz-adv-x="443" 
d="M-52 -92l400 847h138l-399 -847h-139z" />
    <glyph glyph-name="zero" unicode="0" horiz-adv-x="584" 
d="M237 -16q-118 0 -168 62t-50 189q0 28 2 61t6 71q22 178 99 273q76 94 217 94q117 0 167 -63q50 -64 50 -182q0 -31 -1.5 -61t-5.5 -59q-23 -190 -97 -285q-75 -96 -217 -96zM247 95q61 0 93 65q32 66 50 207q7 52 12 114v28.5t-1 19.5q-3 49 -20 72t-53 23
q-58 0 -91 -63t-51 -198q-11 -71 -12 -118v-14v-13v-12v-12q1 -51 20 -76q18 -24 55 -24z" />
    <glyph glyph-name="one" unicode="1" horiz-adv-x="441" 
d="M142 0l78 547q-26 -12 -78 -21q-53 -9 -81 -9v121q151 12 230 86h103l-102 -724h-150z" />
    <glyph glyph-name="two" unicode="2" horiz-adv-x="542" 
d="M-11 1l17 123l182 185q54 55 89.5 93.5t52.5 61.5q34 44 34 90q0 68 -71 68q-40 0 -66 -26t-42 -81l-136 23q21 102 93 150t175 48q99 0 152 -45t53 -124q0 -83 -43 -142q-45 -62 -180 -188l-117 -111h288l-18 -126z" />
    <glyph glyph-name="three" unicode="3" horiz-adv-x="554" 
d="M318 737q96 0 150 -42t54 -117q0 -72 -51 -124q-51 -53 -115 -72l-1 -4q65 -17 99 -52q35 -37 35 -103q0 -108 -75 -172q-74 -64 -202 -64q-97 0 -158 44q-59 43 -64 138l135 29q4 -99 90 -99q51 0 86 33t35 95q0 89 -115 89h-61l15 113h47q71 0 110 33t39 90
q0 31 -18 51t-55 20q-45 0 -68 -22t-40 -69l-133 27q46 178 264 178h-3z" />
    <glyph glyph-name="four" unicode="4" horiz-adv-x="601" 
d="M304 0l23 163h-324l15 104l341 457h193l-62 -443h81l-16 -118h-82l-23 -163h-146zM344 281l44 311l-232 -311h188z" />
    <glyph glyph-name="five" unicode="5" horiz-adv-x="560" 
d="M233 600l-47 -188q62 49 148 49q74 0 119 -45t45 -137q0 -134 -81 -213q-80 -79 -205 -79q-97 0 -157 45q-59 45 -64 140l133 24q2 -95 93 -95q55 0 94 39t39 111q0 94 -82 94q-56 0 -114 -51l-98 45l81 385h386l-18 -124h-272z" />
    <glyph glyph-name="six" unicode="6" horiz-adv-x="577" 
d="M433 527q-3 52 -21 75t-54 23q-124 0 -163 -232q79 50 164 50q77 0 124 -44q46 -43 46 -128q0 -136 -78 -209q-79 -74 -193 -74q-121 0 -172 70t-51 198q0 47 6 95q3 24 8 50t12 55q14 59 40 105q28 49 63 89q35 39 92 64q55 24 123 24q78 0 131 -45t59 -133zM189 290
q-2 -20 -3.5 -39t-1.5 -36q0 -119 83 -119q47 0 77 41q30 40 30 113q0 84 -72 84q-54 0 -113 -44z" />
    <glyph glyph-name="seven" unicode="7" horiz-adv-x="531" 
d="M10 -1l362 599h-314l18 126h475l-15 -113l-363 -612h-163z" />
    <glyph glyph-name="eight" unicode="8" horiz-adv-x="569" 
d="M408 387q56 -28 88 -66q31 -37 31 -96q0 -103 -79 -170q-80 -68 -217 -68q-113 0 -175 47q-61 46 -61 126q0 77 43 126t126 84q-91 57 -91 150q0 103 78 160t196 57q99 0 156 -42t57 -114q0 -63 -36 -105q-35 -40 -113 -88zM246 311q-107 -51 -107 -132q0 -37 27 -59
q28 -23 75 -23q56 0 89 30t33 76q0 41 -28 63q-29 22 -87 45h-2zM312 441q50 32 75 62q24 28 24 63q0 68 -83 68q-46 0 -74 -26q-27 -26 -27 -65q0 -59 86 -103z" />
    <glyph glyph-name="nine" unicode="9" horiz-adv-x="576" 
d="M133 193q11 -95 87 -95q67 0 108 63q40 63 54 171q-67 -52 -162 -52q-78 0 -126 48t-48 134q0 133 78 204q79 71 192 71q117 0 171 -73q54 -74 54 -198q0 -102 -18 -186q-18 -85 -55 -151q-38 -68 -102 -105t-150 -37q-93 0 -151 42q-59 42 -69 130zM388 433q2 20 3.5 38
t1.5 34q0 122 -81 122q-50 0 -81 -39q-31 -38 -31 -108q0 -91 77 -91q66 0 110 44h1z" />
    <glyph glyph-name="colon" unicode=":" horiz-adv-x="304" 
d="M208 90q0 -102 -105 -102q-83 0 -83 71q0 102 107 102q81 0 81 -71zM264 433q0 -102 -105 -102q-83 0 -83 71q0 102 107 102q81 0 81 -71z" />
    <glyph glyph-name="semicolon" unicode=";" horiz-adv-x="305" 
d="M52 130h158l-136 -266l-120 13zM275 433q0 -102 -105 -102q-83 0 -83 71q0 102 107 102q81 0 81 -71z" />
    <glyph glyph-name="less" unicode="&#x3c;" horiz-adv-x="569" 
d="M52 222l19 138l410 141l-17 -125l-286 -87l261 -89l-17 -116z" />
    <glyph glyph-name="equal" unicode="=" horiz-adv-x="570" 
d="M60 130l16 117h386l-17 -117h-385zM86 316l17 117h385l-17 -117h-385z" />
    <glyph glyph-name="greater" unicode="&#x3e;" horiz-adv-x="569" 
d="M475 224l-410 -138l17 127l286 88l-262 87l18 113l370 -141z" />
    <glyph glyph-name="question" unicode="?" horiz-adv-x="555" 
d="M329 735q94 0 156 -44t62 -138q0 -208 -244 -262l-13 -93h-150l25 183q23 2 43.5 4.5t37.5 6.5q34 7 69 24t53 47t18 74q0 78 -79 78q-89 0 -117 -103l-142 23q24 96 95 147q70 51 186 51v2zM284 81q0 -43 -25 -67q-26 -24 -75 -24q-80 0 -80 65q0 93 102 93q79 0 79 -67
h-1z" />
    <glyph glyph-name="at" unicode="@" horiz-adv-x="854" 
d="M584 -137q-88 -55 -244 -55q-148 0 -239 87q-92 87 -92 241q0 202 132 324q133 122 341 122q147 0 236 -76q90 -77 90 -204q0 -150 -69 -231t-173 -81q-88 0 -107 55q-51 -54 -125 -54q-55 0 -85 42t-30 108q0 110 58 183t148 73q52 0 81 -35l13 29h81l-46 -262
q-1 -8 -1.5 -14t-0.5 -10q0 -34 36 -34q56 0 86 69t30 149q0 91 -60 147q-61 56 -176 56q-91 0 -160 -30q-68 -30 -109 -81t-60 -111q-20 -62 -20 -128q0 -116 66 -180q65 -64 176 -64q105 0 194 46zM487 296q-20 23 -54 23q-49 0 -80 -42q-32 -43 -32 -122q0 -83 53 -83
q40 0 81 41z" />
    <glyph glyph-name="A" unicode="A" 
d="M489 724l152 -724h-165l-34 180h-237l-81 -180h-162l336 724h191zM376 584h-2l-128 -285h180z" />
    <glyph glyph-name="B" unicode="B" horiz-adv-x="631" 
d="M25 0l101 724h284q195 0 195 -154q0 -149 -162 -192v-2q144 -18 144 -148q0 -120 -81 -174t-219 -54h-262zM273 110q76 0 114 24t38 95q0 49 -33 66q-34 17 -93 17h-77l-28 -202h79zM295 421q157 0 157 118q0 33 -18 50q-19 17 -40 20q-23 3 -66 3h-63l-27 -190z" />
    <glyph glyph-name="C" unicode="C" 
d="M645 217q-21 -83 -72 -135t-112 -73q-62 -21 -138 -21q-147 0 -220 81q-73 80 -73 220q0 204 105 326t291 122q121 0 190 -63t69 -181v-10v-12l-142 -13v17q0 142 -127 142q-103 0 -163 -83t-60 -239q0 -187 150 -187q68 0 107 33t62 98z" />
    <glyph glyph-name="D" unicode="D" horiz-adv-x="718" 
d="M23 0l101 724h251q159 0 236 -75t77 -213q0 -196 -108 -316t-320 -120h-237zM269 119q261 0 261 309q0 96 -45 137q-46 41 -138 41h-85l-67 -487h74z" />
    <glyph glyph-name="E" unicode="E" horiz-adv-x="576" 
d="M25 0l101 724h454l-16 -122h-301l-25 -181h283l-17 -120h-283l-25 -179h319l-17 -122h-473z" />
    <glyph glyph-name="F" unicode="F" horiz-adv-x="547" 
d="M179 0h-154l101 724h452l-17 -122h-298l-27 -193h274l-17 -120h-274z" />
    <glyph glyph-name="G" unicode="G" horiz-adv-x="728" 
d="M625 -3h-111l-4 88q-28 -46 -90 -73t-129 -27q-131 0 -196 80q-64 79 -64 215q0 206 106 330q107 125 294 125q122 0 190 -59q67 -58 67 -177v-12l-145 -14v15q0 128 -123 128q-112 0 -169 -88q-57 -89 -57 -237q0 -96 37 -140q37 -45 114 -45q70 0 113 37t51 93l5 37
h-129l15 104h281z" />
    <glyph glyph-name="H" unicode="H" horiz-adv-x="724" 
d="M605 0h-154l41 301h-272l-41 -301h-154l101 724h153l-41 -295h273l41 295h153z" />
    <glyph glyph-name="I" unicode="I" horiz-adv-x="298" 
d="M25 0l101 724h154l-101 -724h-154z" />
    <glyph glyph-name="J" unicode="J" horiz-adv-x="539" 
d="M376 725h153l-72 -525q-15 -112 -76 -161q-62 -50 -168 -50q-214 0 -216 200l150 22q5 -52 18 -77q14 -26 54 -26q34 0 54 20q19 19 27 66z" />
    <glyph glyph-name="K" unicode="K" horiz-adv-x="665" 
d="M235 408l309 316h174l-301 -307l196 -417h-172l-147 310l-84 -81l-32 -229h-153l101 724h153z" />
    <glyph glyph-name="L" unicode="L" horiz-adv-x="561" 
d="M25 0l101 724h154l-83 -598h306l-18 -126h-460z" />
    <glyph glyph-name="M" unicode="M" horiz-adv-x="904" 
d="M785 0h-143l80 572h-4l-246 -572h-140l-82 574h-4l-80 -574h-141l101 724h228l74 -536h5l225 536h228z" />
    <glyph glyph-name="N" unicode="N" horiz-adv-x="736" 
d="M440 0l-202 519l-73 -519h-140l101 724h184l196 -520l73 520h138l-100 -724h-177z" />
    <glyph glyph-name="O" unicode="O" horiz-adv-x="751" 
d="M326 -15q-152 0 -224 82t-72 222q0 124 44 224t136 161q94 62 221 62q151 0 222 -83q70 -82 70 -219q0 -195 -103 -320q-104 -126 -291 -126zM342 106q74 0 125 48q52 49 74 118t22 156q0 76 -36 129t-112 53q-111 0 -168 -91q-57 -92 -57 -229q0 -80 36 -131t116 -51v-2
z" />
    <glyph glyph-name="P" unicode="P" horiz-adv-x="613" 
d="M178 -1h-153l101 724h267q113 0 164 -53t51 -135q0 -143 -81 -219q-80 -76 -239 -76h-77zM287 356q76 0 117 34q42 34 42 120q0 56 -31 75q-32 20 -88 20h-65l-35 -249h60z" />
    <glyph glyph-name="Q" unicode="Q" horiz-adv-x="751" 
d="M327 -15q-151 0 -223 82t-72 222q0 124 44 224t135 161q92 62 219 62q151 0 222 -83q70 -82 70 -219q0 -138 -54 -246q-54 -107 -156 -160q62 -74 162 -74h10l-31 -121h-9h-9q-82 0 -149 45t-105 113q-27 -3 -54 -3v-3zM342 107q74 0 125 48q52 49 74 118t22 156
q0 40 -9 73q-25 109 -138 109q-112 0 -169 -91q-57 -92 -57 -229q0 -35 8 -72q27 -111 146 -111z" />
    <glyph glyph-name="R" unicode="R" horiz-adv-x="637" 
d="M582 1h-166l-101 281h-97l-39 -281h-153l101 724h275q113 0 164 -51t51 -130q0 -86 -39 -140t-116 -86zM304 395q152 0 152 132q0 80 -109 80h-84l-29 -212h70z" />
    <glyph glyph-name="S" unicode="S" horiz-adv-x="593" 
d="M429 507v9q0 49 -23 77q-23 27 -78 27q-59 0 -88 -25q-30 -26 -30 -69q0 -26 16 -43q16 -18 36 -27q21 -10 55 -21q4 -2 12 -4t20 -6t21 -6.5t14 -4.5q12 -3 32 -12q11 -5 19 -8.5t14 -7.5q13 -8 28 -19q16 -12 28 -25q12 -14 21 -30q8 -15 13 -38t5 -46q0 -119 -85 -180
q-86 -62 -210 -62q-27 0 -51 3t-46 8q-44 11 -82 34q-39 24 -60 70t-21 111l143 20q3 -60 29 -95t96 -35q59 0 96 25q38 26 38 79q0 17 -7 30q-8 14 -18 23q-11 10 -28 18q-9 5 -17 8.5t-16 5.5t-17.5 5t-22.5 7q-14 4 -25.5 7.5t-20.5 6.5t-17.5 6t-16.5 7l-17 8.5t-18 9.5
t-18 11.5t-18 14.5q-17 14 -28 33t-18 43t-7 55q0 106 83 169q82 63 204 63q232 0 232 -195v-15z" />
    <glyph glyph-name="T" unicode="T" horiz-adv-x="589" 
d="M171 0l83 599h-210l17 125h574l-18 -125h-209l-83 -599h-154z" />
    <glyph glyph-name="U" unicode="U" horiz-adv-x="700" 
d="M626 260q-37 -271 -318 -271q-131 0 -195 53q-63 52 -63 159q0 19 1.5 36t3.5 33l63 454h153l-61 -444q-2 -19 -3.5 -34t-1.5 -26q0 -56 26 -84q25 -27 87 -27q73 0 108 38t47 129l63 448h152z" />
    <glyph glyph-name="V" unicode="V" horiz-adv-x="655" 
d="M180 0l-131 724h167l86 -578h6l239 578h163l-323 -724h-207z" />
    <glyph glyph-name="W" unicode="W" horiz-adv-x="961" 
d="M552 0l-45 506h-4l-182 -506h-204l-53 724h160l22 -563h4l205 563h164l54 -566h4l171 566h154l-254 -724h-196z" />
    <glyph glyph-name="X" unicode="X" horiz-adv-x="644" 
d="M421 0l-121 244l-182 -244h-166l281 367l-169 357h170l112 -248l181 248h159l-272 -359l184 -365h-177z" />
    <glyph glyph-name="Y" unicode="Y" horiz-adv-x="597" 
d="M373 273q-7 -52 -16.5 -120t-21.5 -153h-154l39 274l-185 450h160l115 -314h4l193 314h162l-296 -450v-1z" />
    <glyph glyph-name="Z" unicode="Z" horiz-adv-x="581" 
d="M-20 0l15 105l406 497h-329l17 122h508l-16 -108l-399 -494h345l-17 -122h-530z" />
    <glyph glyph-name="bracketleft" unicode="[" horiz-adv-x="318" 
d="M-12 -143l122 867h226l-12 -90h-81l-96 -687h80l-12 -90h-227z" />
    <glyph glyph-name="backslash" unicode="\" horiz-adv-x="445" 
d="M239 -92l-161 847h137l162 -847h-138z" />
    <glyph glyph-name="bracketright" unicode="]" horiz-adv-x="318" 
d="M309 724l-122 -867h-226l12 90h81l96 687h-80l12 90h227z" />
    <glyph glyph-name="asciicircum" unicode="^" horiz-adv-x="683" 
d="M471 299l-133 240l-130 -240h-142l197 365h153l199 -365h-144z" />
    <glyph glyph-name="underscore" unicode="_" horiz-adv-x="500" 
d="M-35 -181v107h500v-107h-500z" />
    <glyph glyph-name="grave" unicode="`" horiz-adv-x="500" 
d="M351 572l-111 171h161l51 -162z" />
    <glyph glyph-name="a" unicode="a" horiz-adv-x="614" 
d="M503 124q-1 -4 -1 -15q0 -24 26 -24q12 0 32 5l-9 -82q-38 -18 -93 -18q-88 0 -99 71q-63 -73 -163 -73q-82 0 -129 50q-46 49 -46 153q0 157 74 249q73 91 180 91q82 0 135 -52l8 42h141zM389 382q-35 32 -82 32q-45 0 -75 -36q-29 -35 -40 -79q-10 -41 -10 -90
q0 -105 78 -105q49 0 96 42z" />
    <glyph glyph-name="b" unicode="b" horiz-adv-x="593" 
d="M9 -1l106 755h149l-41 -290q76 66 166 66q73 0 117 -48q44 -49 44 -151q0 -169 -69 -256t-175 -87q-89 0 -145 62h-4l-11 -50zM180 139q43 -35 92 -35q60 0 89 56t29 150q0 102 -71 102q-53 0 -108 -46z" />
    <glyph glyph-name="c" unicode="c" horiz-adv-x="545" 
d="M250 -14q-113 0 -171 61t-58 162q0 150 79 235t214 85q97 0 149 -52q53 -53 53 -141v-9v-9l-132 -9v14q0 95 -78 95q-54 0 -90 -46q-36 -47 -36 -156q0 -113 86 -113q80 0 106 92l125 -20q-23 -95 -88 -141t-160 -46z" />
    <glyph glyph-name="d" unicode="d" horiz-adv-x="591" 
d="M364 -1v55q-1 1 -3 1q-71 -68 -162 -68q-82 0 -129 50q-46 49 -46 152q0 88 23 159q22 69 60 108q37 39 81 57q43 18 90 18q77 0 133 -51l38 275h145l-106 -755zM394 384q-34 31 -78 31q-46 0 -76 -34q-30 -35 -42 -79q-12 -45 -12 -98q0 -41 18 -69q18 -29 59 -29
q53 0 97 37z" />
    <glyph glyph-name="e" unicode="e" horiz-adv-x="531" 
d="M240 -13q-116 0 -168 63q-52 62 -52 163q0 145 83 231t210 86q94 0 139 -39t45 -103q0 -102 -110 -147q-65 -28 -210 -40q2 -47 19 -73q18 -27 69 -27q72 0 98 74l120 -29q-24 -74 -87 -116t-155 -42zM300 425q-46 0 -78 -35t-39 -93q61 2 104 15q67 19 67 69
q0 45 -53 45z" />
    <glyph glyph-name="f" unicode="f" horiz-adv-x="362" 
d="M421 643q-33 13 -71 13q-35 0 -57 -17q-20 -16 -28 -66l-8 -52h138l-14 -106h-138l-89 -627h-151l89 627h-71l15 106h70l10 68q25 177 207 177q77 0 117 -22z" />
    <glyph glyph-name="g" unicode="g" horiz-adv-x="587" 
d="M307 414q-43 0 -73 -32q-29 -31 -40 -72q-10 -39 -10 -84q0 -97 76 -97q55 0 99 39l30 215q-30 32 -82 32v-1zM356 72q-65 -62 -157 -62q-80 0 -126 49q-47 50 -47 147q0 46 9 90q9 46 28 87q19 43 48 75q28 31 72 51q45 20 96 20q91 0 136 -60l12 50h133l-72 -511
q-33 -233 -276 -233q-103 0 -161 45q-59 45 -66 130l142 21q1 -42 21 -63q19 -21 68 -21q106 0 126 113z" />
    <glyph glyph-name="h" unicode="h" horiz-adv-x="583" 
d="M161 0h-151l106 755h150l-44 -297q82 73 172 73q142 0 142 -132q0 -20 -3 -44l-50 -355h-151l47 331q1 9 1.5 15t0.5 9q0 54 -55 54q-50 0 -114 -52z" />
    <glyph glyph-name="i" unicode="i" horiz-adv-x="268" 
d="M163 0h-151l73 521h151zM274 698q0 -49 -27 -76t-76 -27q-37 0 -59 20q-21 19 -21 54q0 48 28 75t76 27q80 0 80 -74z" />
    <glyph glyph-name="j" unicode="j" horiz-adv-x="266" 
d="M85 520h151l-79 -565q-27 -179 -206 -179q-38 0 -74 9t-50 20l27 103q37 -17 75 -17q68 0 78 76zM276 695q0 -49 -28 -76q-29 -27 -78 -27q-36 0 -58 20q-21 19 -21 56q0 48 28 75t76 27q80 0 80 -74z" />
    <glyph glyph-name="k" unicode="k" horiz-adv-x="559" 
d="M347 0l-99 241l-60 -52l-27 -189h-151l106 755h151l-59 -419l197 185h169l-200 -187l140 -334h-167z" />
    <glyph glyph-name="l" unicode="l" horiz-adv-x="268" 
d="M118 755h151l-106 -755h-151z" />
    <glyph glyph-name="m" unicode="m" horiz-adv-x="854" 
d="M383 531q96 0 119 -74q77 74 171 74q134 0 134 -131q0 -20 -3 -42l-50 -358h-151l47 335q1 8 1.5 14t0.5 10q0 49 -45 49q-46 0 -98 -47l-50 -361h-151l47 335q1 9 1.5 15.5t0.5 10.5q0 47 -41 47q-47 0 -105 -50l-50 -358h-151l73 521h139l-9 -69h2q80 79 168 79z" />
    <glyph glyph-name="n" unicode="n" horiz-adv-x="583" 
d="M160 -1h-151l73 521h141l-9 -68l1 -1q80 79 184 79q136 0 136 -133q0 -20 -3 -42l-50 -355h-151l47 331q1 9 1.5 15t0.5 8q0 55 -52 55q-56 0 -117 -52z" />
    <glyph glyph-name="o" unicode="o" horiz-adv-x="587" 
d="M247 -10q-227 0 -227 222q0 140 78 230t224 90q222 0 222 -224q0 -87 -30 -157q-30 -71 -99 -117q-68 -46 -167 -46zM257 95q38 0 64 22q27 22 40 58q13 34 19 70q6 34 6 70q0 111 -83 111q-38 0 -65 -21t-40 -55q-13 -32 -19 -69q-6 -35 -6 -70q0 -116 86 -116h-2z" />
    <glyph glyph-name="p" unicode="p" horiz-adv-x="593" 
d="M215 458l2 -1q70 73 173 73q73 0 117 -48q44 -49 44 -151q0 -173 -72 -258t-182 -85q-83 0 -134 51l-35 -251h-147l104 733h139zM389 309q0 55 -16 78q-17 24 -52 24q-24 0 -57 -14q-30 -13 -52 -30l-32 -227q11 -13 36 -25q24 -12 49 -12q66 0 96 59q30 58 30 149z" />
    <glyph glyph-name="q" unicode="q" horiz-adv-x="589" 
d="M281 534q91 0 136 -60l12 50h133l-103 -733h-144l37 261q-67 -61 -156 -61q-80 0 -127 50q-46 49 -46 153q0 89 23 158q22 67 60 105t81 56t92 18zM183 217q0 -107 77 -107q55 0 99 37l33 242q-30 30 -79 30q-64 0 -97 -58q-33 -59 -33 -144z" />
    <glyph glyph-name="r" unicode="r" horiz-adv-x="397" 
d="M162 1h-151l73 521h138l-11 -87h2q78 97 171 97q5 0 11.5 -0.5t15.5 -1.5l-20 -141h-9h-9q-90 0 -165 -57z" />
    <glyph glyph-name="s" unicode="s" horiz-adv-x="501" 
d="M271 524q89 0 140 -39q50 -39 61 -111l-125 -29q-11 78 -83 78q-73 0 -73 -48q0 -5 2 -13q1 -5 6 -10l8 -8q3 -3 11 -6q7 -3 12 -6q4 -3 15 -6l17 -4q3 -1 7.5 -1.5t11.5 -2.5t11.5 -2.5t6.5 -1.5q33 -8 54 -15q21 -8 45 -24t37 -43q13 -26 13 -64q0 -89 -67 -135
q-68 -47 -175 -47q-103 0 -156 41q-52 40 -58 110l128 34q12 -82 97 -82q83 0 83 53q0 9 -3 17q-3 7 -10 13q-4 3 -7 5.5t-6 4.5q-6 5 -19 9q-12 4 -20 6l-24 6q-20 5 -25 6q-16 4 -28.5 8t-23.5 9t-22 11t-22 14q-24 17 -35 43q-12 27 -12 64q0 85 66 129q67 44 161 44z
" />
    <glyph glyph-name="t" unicode="t" horiz-adv-x="412" 
d="M362 23q-24 -14 -66 -24q-44 -11 -82 -11q-156 0 -156 135q0 19 3 40l36 251h-78l14 107h78l22 150l154 23l-25 -173h138l-14 -107h-138l-34 -237q-1 -9 -1.5 -15t-0.5 -10q0 -51 52 -51q41 0 82 22z" />
    <glyph glyph-name="u" unicode="u" horiz-adv-x="577" 
d="M397 521h151l-73 -521h-127l2 64h-1h-1q-29 -32 -78 -55q-47 -22 -100 -22q-142 0 -142 139q0 19 3 42l49 353h151l-46 -331q-1 -8 -1.5 -13.5t-0.5 -8.5q0 -60 56 -60q53 0 106 50z" />
    <glyph glyph-name="v" unicode="v" horiz-adv-x="537" 
d="M131 0l-108 521h163l55 -380h3l162 380h155l-254 -521h-176z" />
    <glyph glyph-name="w" unicode="w" horiz-adv-x="814" 
d="M100 0l-77 521h150l43 -370l143 370h149l43 -368l139 368h149l-226 -521h-170l-38 345l-125 -345h-180z" />
    <glyph glyph-name="x" unicode="x" horiz-adv-x="525" 
d="M315 0l-81 161l-118 -161h-153l206 266l-137 255h155l80 -163l122 163h151l-203 -262l135 -259h-157z" />
    <glyph glyph-name="y" unicode="y" horiz-adv-x="524" 
d="M24 522h157l58 -369h2l152 369h160l-273 -557q-53 -107 -99 -147t-129 -40q-67 0 -108 22l25 104q43 -15 73 -15q32 0 52 21q19 20 48 80z" />
    <glyph glyph-name="z" unicode="z" horiz-adv-x="464" 
d="M-20 0l14 100l277 314h-232l15 107h399l-15 -101l-270 -306h243l-17 -114h-414z" />
    <glyph glyph-name="braceleft" unicode="{" horiz-adv-x="336" 
d="M25 342q57 0 72 63q7 37 12 104q2 33 3.5 54.5t2.5 31.5q10 82 56 114t138 32h55l-13 -99h-21q-29 0 -41 -15q-13 -16 -14 -51q-5 -69 -8.5 -107t-5.5 -47q-10 -56 -33 -82t-66 -42q-1 -1 -1 -3q34 -14 51 -33q17 -20 17 -57q0 -38 -21 -111q-21 -74 -21 -102
q0 -39 46 -39h17l-14 -98h-76q-121 0 -136 83q-1 5 -1.5 13.5t-0.5 19.5q1 37 21 111q20 75 20 111q0 56 -52 56h-22l13 89z" />
    <glyph glyph-name="bar" unicode="|" horiz-adv-x="280" 
d="M5 -143l125 898h137l-126 -898h-136z" />
    <glyph glyph-name="braceright" unicode="}" horiz-adv-x="337" 
d="M286 249q-57 0 -72 -63q-8 -38 -12 -103q-2 -33 -3.5 -54.5t-2.5 -31.5q-10 -82 -56 -114t-138 -32h-55l13 99h21q29 0 41 15q13 16 14 51q5 69 8.5 107t5.5 47q10 56 33 82q22 25 66 42q1 1 1 3q-35 13 -51 33q-16 19 -16 57q0 37 21 111q21 73 21 102q0 39 -46 39h-17
l14 98h76q121 0 136 -83q1 -5 1.5 -13.5t0.5 -19.5q-2 -38 -21 -111q-20 -75 -20 -111q0 -56 52 -56h22l-13 -89z" />
    <glyph glyph-name="asciitilde" unicode="~" horiz-adv-x="600" 
d="M188 444q35 0 130 -21q94 -21 114 -21q17 0 23 9t6 35l83 -4q1 -10 1.5 -17t0.5 -12q0 -53 -25 -84t-75 -31q-39 0 -133 22t-114 22q-30 0 -30 -32q0 -11 1 -15l-89 3q-1 9 -1.5 15.5t-0.5 11.5q0 57 28 89q28 33 81 33v-3z" />
    <glyph glyph-name="uni00A0" unicode="&#xa0;" horiz-adv-x="174" 
 />
    <glyph glyph-name="exclamdown" unicode="&#xa1;" horiz-adv-x="290" 
d="M217 323l-55 -528h-164l93 528h126zM82 440q0 43 26 67q25 24 75 24q80 0 80 -65q0 -93 -102 -93q-79 0 -79 67z" />
    <glyph glyph-name="cent" unicode="&#xa2;" horiz-adv-x="537" 
d="M396 709l-15 -104q61 -14 96 -63q34 -49 34 -118v-6l-134 -9q1 93 -72 93q-55 0 -88 -48t-33 -139q0 -96 81 -96q41 0 65 21t37 67l122 -22q-18 -74 -66 -119t-122 -57l-14 -109h-127l16 116q-144 34 -144 198q0 127 60 202t162 93l14 101z" />
    <glyph glyph-name="sterling" unicode="&#xa3;" horiz-adv-x="593" 
d="M38 113q48 37 69 69q21 31 21 74q0 25 -8 54h-96l15 107h65q-24 58 -24 108q0 91 72 150q73 59 192 59q222 0 222 -206l-137 -10q-2 50 -19 78q-18 28 -69 28q-49 0 -78 -26q-28 -25 -28 -75q0 -42 25 -105h195l-15 -107h-165q3 -18 3 -40q0 -80 -90 -156h114q61 0 90 24
q28 24 42 81l125 -21q-33 -199 -251 -199h-339l15 116z" />
    <glyph glyph-name="yen" unicode="&#xa5;" horiz-adv-x="574" 
d="M336 160l-22 -160h-155l23 160h-121l15 95h119l10 68h-123l12 94h76l-124 307h165l87 -279h4l149 279h160l-192 -307h83l-14 -94h-128l-1 -2l-9 -66h131l-13 -95h-132z" />
    <glyph glyph-name="brokenbar" unicode="&#xa6;" horiz-adv-x="280" 
d="M5 -143l54 388h137l-55 -388h-136zM83 417l47 338h137l-47 -338h-137z" />
    <glyph glyph-name="section" unicode="&#xa7;" horiz-adv-x="572" 
d="M337 605q-44 0 -70 -22q-27 -23 -27 -57q0 -33 29 -54q30 -22 69 -35q20 -7 41 -14.5t42 -15.5q42 -16 70 -49q29 -34 29 -82q0 -92 -114 -168q45 -44 45 -108q0 -100 -69 -157t-175 -57q-96 0 -155 44q-58 43 -63 140l133 14q2 -95 90 -95q39 0 65 21t26 56q0 34 -29 55
t-69 33q-38 11 -82 27q-41 15 -70 50t-29 87t27 90q28 38 87 77q-45 45 -45 112q0 101 73 156q74 56 186 56q91 0 147 -42q55 -42 55 -130v-12l-133 -15v9v8q0 81 -79 81zM162 261q0 -18 9 -31q9 -14 27 -24q9 -5 18 -9t17 -7q16 -6 45 -15q28 -9 45 -15q56 32 56 74
q0 26 -21 41q-22 16 -75 32q-52 16 -73 24q-49 -31 -49 -72z" />
    <glyph glyph-name="dieresis" unicode="&#xa8;" horiz-adv-x="500" 
d="M174 667q0 42 29 68t74 26q37 0 57 -19q21 -20 21 -51q0 -41 -28 -66q-29 -26 -72 -26q-38 0 -58 19q-21 19 -21 52zM407 665q0 42 29 68t74 26q37 0 57 -19q21 -20 21 -52q0 -42 -28 -67t-72 -25q-38 0 -58 19q-21 19 -21 52z" />
    <glyph glyph-name="copyright" unicode="&#xa9;" horiz-adv-x="802" 
d="M749 341q0 -158 -97 -255t-255 -97q-168 0 -259 94t-91 243q0 160 101 255t252 95q165 0 257 -91q93 -92 93 -246zM398 64q124 0 195 72q71 73 71 197q0 127 -73 196q-74 69 -193 69q-117 0 -192 -72t-75 -199q0 -122 71 -191q70 -69 197 -69zM560 261q-4 -37 -21 -64
q-16 -26 -41 -40q-22 -13 -48 -19q-24 -6 -49 -6q-91 0 -135 53q-43 52 -43 143q0 87 48 141t134 54q62 0 104 -33q43 -33 47 -99l-73 -8q-4 40 -24 58t-57 18q-43 0 -70 -31q-27 -32 -27 -99q0 -128 96 -128q74 0 89 77z" />
    <glyph glyph-name="ordfeminine" unicode="&#xaa;" horiz-adv-x="446" 
d="M379 370v-5v-4q0 -16 18 -16q12 0 24 4l-7 -62q-27 -13 -72 -13q-63 0 -72 45q-44 -45 -109 -45q-57 0 -90 33t-33 101q0 108 53 166q52 57 123 57q55 0 90 -34l5 27h111zM285 530q-19 16 -48 16q-28 0 -46 -21t-24 -48t-6 -55q0 -62 49 -62q28 0 54 21z" />
    <glyph glyph-name="guillemotleft" unicode="&#xab;" horiz-adv-x="465" 
d="M90 103l-64 154l110 151h122l-108 -147l61 -158h-121zM276 103l-64 154l110 151h122l-108 -147l61 -158h-121z" />
    <glyph glyph-name="logicalnot" unicode="&#xac;" horiz-adv-x="570" 
d="M342 172l10 94h-276l13 117h387l-23 -211h-111z" />
    <glyph glyph-name="uni00AD" unicode="&#xad;" horiz-adv-x="311" 
d="M0 229l18 125h271l-18 -125h-271z" />
    <glyph glyph-name="registered" unicode="&#xae;" horiz-adv-x="464" 
d="M438 474q0 -86 -54 -138q-55 -53 -139 -53q-92 0 -141 51q-50 52 -50 134q0 87 56 140t138 53q89 0 140 -51t51 -136h-1zM385 470q0 67 -39 105q-38 37 -102 37q-62 0 -102 -39t-40 -106q0 -65 39 -102q38 -37 105 -37q65 0 104 39t39 104zM337 382h-53l-42 72h-17v-72
h-48v190h72q72 0 72 -55q0 -37 -35 -51zM238 487q34 0 34 26q0 24 -30 24h-17v-50h13z" />
    <glyph glyph-name="macron" unicode="&#xaf;" horiz-adv-x="500" 
d="M221 603l14 100h311l-14 -100h-311z" />
    <glyph glyph-name="degree" unicode="&#xb0;" horiz-adv-x="345" 
d="M190 580q23 0 39 16t16 40q0 20 -12 34q-12 13 -32 13q-23 0 -39 -16t-16 -42q0 -21 12 -33t33 -12h-1zM313 642q0 -56 -37 -92q-38 -36 -93 -36q-48 0 -79 29q-30 28 -30 75q0 59 39 95t93 36q48 0 77 -28q30 -29 30 -78v-1z" />
    <glyph glyph-name="plusminus" unicode="&#xb1;" horiz-adv-x="569" 
d="M15 0l17 116h387l-17 -116h-387zM167 144l19 121h-134l17 116h134l19 140h120l-19 -140h133l-17 -116h-133l-19 -121h-120z" />
    <glyph glyph-name="twosuperior" unicode="&#xb2;" horiz-adv-x="382" 
d="M23 347l16 107l115 103q69 63 86 84q18 22 18 44q0 28 -32 28q-19 0 -33 -14q-13 -13 -22 -44l-114 19q10 67 65 100q54 33 125 33q73 0 111 -30q37 -30 37 -80t-28 -87q-29 -38 -115 -105l-53 -46l1 -2h167l-16 -108z" />
    <glyph glyph-name="threesuperior" unicode="&#xb3;" horiz-adv-x="393" 
d="M255 809q67 0 107 -26q39 -26 39 -75q0 -41 -28 -70t-75 -46v-2q83 -21 83 -98q0 -70 -50 -111q-49 -40 -138 -40q-155 0 -165 123l117 21q0 -51 49 -51q24 0 39 15t15 42q0 44 -52 44h-51l13 86h31q39 0 60 18t21 47q0 14 -9 23t-26 9q-40 0 -55 -48l-113 19
q34 120 189 120h-1z" />
    <glyph glyph-name="acute" unicode="&#xb4;" horiz-adv-x="499" 
d="M386 743h163l-160 -171l-99 9z" />
    <glyph glyph-name="mu" unicode="&#xb5;" horiz-adv-x="628" 
d="M415 521h151l-74 -521h-124l2 55q-29 -24 -72 -45q-44 -21 -84 -21q-27 0 -51 12l-5 -5l6 -172h-156l99 697h151l-48 -331q-3 -15 -3 -30q0 -54 46 -54q53 0 108 46z" />
    <glyph glyph-name="paragraph" unicode="&#xb6;" horiz-adv-x="604" 
d="M466 -132h-104l107 765h-66l-107 -765h-105l53 377q-94 6 -141 56t-47 135q0 75 26 133q25 56 71 90q44 32 101 49q54 16 123 16h210z" />
    <glyph glyph-name="periodcentered" unicode="&#xb7;" horiz-adv-x="238" 
d="M202 322q0 -44 -24 -68t-73 -24q-77 0 -77 64q0 44 24 68t75 24q75 0 75 -65v1z" />
    <glyph glyph-name="cedilla" unicode="&#xb8;" horiz-adv-x="499" 
d="M122 -161q28 -12 54 -12q24 0 40 11q15 10 15 32q0 19 -15 27q-15 7 -45 9l34 124l70 -8l-19 -67q74 -14 74 -81q0 -59 -40 -90t-103 -31q-46 0 -82 17z" />
    <glyph glyph-name="onesuperior" unicode="&#xb9;" horiz-adv-x="340" 
d="M133 349l47 310q-15 -7 -51 -13q-35 -6 -54 -6v105q100 7 159 54h95l-67 -451z" />
    <glyph glyph-name="ordmasculine" unicode="&#xba;" horiz-adv-x="415" 
d="M199 274q-161 0 -161 148q0 91 57 150t155 59q157 0 157 -148q0 -90 -55 -149q-56 -60 -154 -60h1zM210 352q63 0 75 97q1 16 1.5 26t0.5 15q0 63 -49 63q-64 0 -78 -98q-1 -7 -1.5 -16.5t-0.5 -22.5q0 -64 51 -64h1z" />
    <glyph glyph-name="guillemotright" unicode="&#xbb;" horiz-adv-x="464" 
d="M1 103l108 154l-68 151h122l67 -153l-108 -152h-121zM187 103l108 154l-68 151h122l67 -153l-108 -152h-121z" />
    <glyph glyph-name="onequarter" unicode="&#xbc;" horiz-adv-x="1012" 
d="M124 281l47 310q-15 -7 -51 -13q-35 -6 -54 -6v105q100 7 159 54h95l-67 -451zM171 -11l458 736h138l-457 -736h-139zM727 1l15 92h-208l12 88l214 272h162l-39 -260h51l-14 -100h-51l-14 -92h-128zM755 193l26 159l-126 -159h100z" />
    <glyph glyph-name="onehalf" unicode="&#xbd;" horiz-adv-x="1012" 
d="M131 281l47 310q-15 -7 -51 -13q-35 -6 -54 -6v105q100 7 159 54h95l-67 -451zM161 -11l458 736h138l-457 -736h-139zM555 -1l16 107l115 103q69 63 86 84q18 22 18 44q0 28 -32 28q-19 0 -33 -14q-13 -13 -22 -44l-114 19q10 67 65 100q54 33 125 33q73 0 111 -30
q37 -30 37 -80t-28 -87q-29 -38 -115 -105l-53 -46l1 -2h167l-16 -108z" />
    <glyph glyph-name="threequarters" unicode="&#xbe;" horiz-adv-x="1012" 
d="M200 -12l458 736h138l-457 -736h-139zM736 0l15 92h-208l12 88l214 272h162l-39 -260h51l-14 -100h-51l-14 -92h-128zM764 192l26 159l-126 -159h100zM247 741q67 0 107 -26q39 -26 39 -75q0 -41 -28 -70t-75 -46v-2q83 -21 83 -98q0 -70 -50 -111q-49 -40 -138 -40
q-155 0 -165 123l117 21q0 -51 49 -51q24 0 39 15t15 42q0 44 -52 44h-51l13 86h31q39 0 60 18t21 47q0 14 -9 23t-26 9q-40 0 -55 -48l-113 19q34 120 189 120h-1z" />
    <glyph glyph-name="questiondown" unicode="&#xbf;" horiz-adv-x="544" 
d="M202 -216q-94 0 -156 44q-61 43 -61 138q0 208 244 262l13 93h150l-25 -183q-23 -2 -43.5 -4.5t-37.5 -6.5q-35 -8 -69 -24q-35 -17 -53 -47t-18 -74q0 -78 79 -78q89 0 117 103l142 -23q-24 -96 -95 -147t-186 -51zM246 438q0 43 26 67q25 24 75 24q80 0 80 -65
q0 -93 -102 -93q-79 0 -79 67z" />
    <glyph glyph-name="Agrave" unicode="&#xc0;" 
d="M419 916l71 -140l-107 -8l-125 148h161zM489 724l152 -724h-165l-34 180h-237l-81 -180h-162l336 724h191zM376 584h-2l-128 -285h180z" />
    <glyph glyph-name="Aacute" unicode="&#xc1;" 
d="M415 916h163l-167 -148l-105 8zM489 724l152 -724h-165l-34 180h-237l-81 -180h-162l336 724h191zM376 584h-2l-128 -285h180z" />
    <glyph glyph-name="Acircumflex" unicode="&#xc2;" 
d="M471 769l-61 73l-85 -74l-102 7l127 141h140l82 -141zM489 724l152 -724h-165l-34 180h-237l-81 -180h-162l336 724h191zM376 584h-2l-128 -285h180z" />
    <glyph glyph-name="Atilde" unicode="&#xc3;" 
d="M351 924q35 0 77 -21t62 -21q17 0 24 10q8 11 12 34l75 -4q0 -63 -30 -100t-81 -37q-38 0 -81 22t-61 22t-27 -10q-8 -10 -10 -37l-81 3q1 63 35 103q33 39 84 39zM491 721l152 -724h-165l-34 180h-237l-81 -180h-162l336 724h191zM378 581h-2l-128 -285h180z" />
    <glyph glyph-name="Adieresis" unicode="&#xc4;" 
d="M201 843q0 42 29 68t74 26q37 0 57 -19q21 -20 21 -51q0 -42 -28 -67t-72 -25q-38 0 -58 19q-21 19 -21 52zM435 840q0 42 29 68t74 26q37 0 57 -19q21 -20 21 -51q0 -41 -28 -66q-29 -26 -72 -26q-38 0 -58 19q-21 19 -21 52zM485 718l152 -724h-165l-34 180h-237
l-81 -180h-162l336 724h191zM372 578h-2l-128 -285h180z" />
    <glyph glyph-name="Aring" unicode="&#xc5;" 
d="M518 796q0 -49 -28 -83l150 -714h-165l-34 180h-237l-81 -180h-162l330 711q-14 20 -14 51q0 62 40 96t96 34q47 0 76 -25q30 -26 30 -69zM375 583h-2l-128 -285h180zM388 732q25 0 40 15t15 41q0 17 -11 28q-10 10 -29 10q-24 0 -39 -15t-15 -40q0 -38 41 -38z" />
    <glyph glyph-name="AE" unicode="&#xc6;" horiz-adv-x="990" 
d="M438 0l41 290h-180l-178 -290h-159l454 724h578l-17 -122h-301l-26 -190h283l-18 -120h-282l-24 -170h319l-17 -122h-473zM522 602h-41l-121 -195h135z" />
    <glyph glyph-name="Ccedilla" unicode="&#xc7;" 
d="M209 -162q25 -12 54 -12q24 0 39 12t15 32q0 19 -15 27q-15 7 -45 9l22 84q-126 12 -189 91t-63 208q0 204 105 326t291 122q121 0 190 -63t69 -181v-10v-12l-142 -13v17q0 142 -127 142q-103 0 -163 -83t-60 -239q0 -187 150 -187q68 0 107 33t62 98l135 -22
q-29 -114 -106 -167t-184 -61l-9 -34q73 -13 73 -81q0 -59 -39 -90q-38 -31 -102 -31q-49 0 -81 17z" />
    <glyph glyph-name="Egrave" unicode="&#xc8;" horiz-adv-x="576" 
d="M378 916l71 -140l-107 -8l-125 148h161zM25 0l101 724h454l-16 -122h-301l-25 -181h283l-17 -120h-283l-25 -179h319l-17 -122h-473z" />
    <glyph glyph-name="Eacute" unicode="&#xc9;" horiz-adv-x="576" 
d="M374 916h163l-167 -148l-105 8zM25 0l101 724h454l-16 -122h-301l-25 -181h283l-17 -120h-283l-25 -179h319l-17 -122h-473z" />
    <glyph glyph-name="Ecircumflex" unicode="&#xca;" horiz-adv-x="576" 
d="M430 769l-61 73l-85 -74l-102 7l127 141h140l82 -141zM25 0l101 724h454l-16 -122h-301l-25 -181h283l-17 -120h-283l-25 -179h319l-17 -122h-473z" />
    <glyph glyph-name="Edieresis" unicode="&#xcb;" horiz-adv-x="576" 
d="M160 843q0 42 29 68t74 26q37 0 57 -19q21 -20 21 -51q0 -42 -28 -67t-72 -25q-38 0 -58 19q-21 19 -21 52zM394 840q0 42 29 68t74 26q37 0 57 -19q21 -20 21 -51q0 -41 -28 -66q-29 -26 -72 -26q-38 0 -58 19q-21 19 -21 52zM21 -6l101 724h454l-16 -122h-301l-25 -181
h283l-17 -120h-283l-25 -179h319l-17 -122h-473z" />
    <glyph glyph-name="Igrave" unicode="&#xcc;" horiz-adv-x="298" 
d="M227 916l71 -140l-107 -8l-125 148h161zM25 0l101 724h154l-101 -724h-154z" />
    <glyph glyph-name="Iacute" unicode="&#xcd;" horiz-adv-x="298" 
d="M223 916h163l-167 -148l-105 8zM25 0l101 724h154l-101 -724h-154z" />
    <glyph glyph-name="Icircumflex" unicode="&#xce;" horiz-adv-x="298" 
d="M279 769l-61 73l-85 -74l-102 7l127 141h140l82 -141zM25 0l101 724h154l-101 -724h-154z" />
    <glyph glyph-name="Idieresis" unicode="&#xcf;" horiz-adv-x="298" 
d="M9 843q0 42 29 68t74 26q37 0 57 -19q21 -20 21 -51q0 -42 -28 -67t-72 -25q-38 0 -58 19q-21 19 -21 52zM243 840q0 42 29 68t74 26q37 0 57 -19q21 -20 21 -51q0 -41 -28 -66q-29 -26 -72 -26q-38 0 -58 19q-21 19 -21 52zM21 -6l101 724h154l-101 -724h-154z" />
    <glyph glyph-name="Eth" unicode="&#xd0;" horiz-adv-x="738" 
d="M43 0l43 308h-68l18 124h67l41 292h251q159 0 236 -75t77 -213q0 -196 -108 -316t-320 -120h-237zM289 119q261 0 261 309q0 96 -45 137q-46 41 -138 41h-85l-24 -174h179l-18 -124h-178l-26 -189h74z" />
    <glyph glyph-name="Ntilde" unicode="&#xd1;" horiz-adv-x="736" 
d="M385 924q35 0 77 -21t62 -21q17 0 24 10q8 11 12 34l75 -4q0 -63 -30 -100t-81 -37q-38 0 -81 22t-61 22t-27 -10q-8 -10 -10 -37l-81 3q1 63 35 103q33 39 84 39zM442 -3l-202 519l-73 -519h-140l101 724h184l196 -520l73 520h138l-100 -724h-177z" />
    <glyph glyph-name="Ograve" unicode="&#xd2;" horiz-adv-x="751" 
d="M457 916l71 -140l-107 -8l-125 148h161zM326 -15q-152 0 -224 82t-72 222q0 124 44 224t136 161q94 62 221 62q151 0 222 -83q70 -82 70 -219q0 -195 -103 -320q-104 -126 -291 -126zM342 106q74 0 125 48q52 49 74 118t22 156q0 76 -36 129t-112 53q-111 0 -168 -91
q-57 -92 -57 -229q0 -80 36 -131t116 -51v-2z" />
    <glyph glyph-name="Oacute" unicode="&#xd3;" horiz-adv-x="751" 
d="M453 916h163l-167 -148l-105 8zM326 -15q-152 0 -224 82t-72 222q0 124 44 224t136 161q94 62 221 62q151 0 222 -83q70 -82 70 -219q0 -195 -103 -320q-104 -126 -291 -126zM342 106q74 0 125 48q52 49 74 118t22 156q0 76 -36 129t-112 53q-111 0 -168 -91
q-57 -92 -57 -229q0 -80 36 -131t116 -51v-2z" />
    <glyph glyph-name="Ocircumflex" unicode="&#xd4;" horiz-adv-x="751" 
d="M509 769l-61 73l-85 -74l-102 7l127 141h140l82 -141zM326 -15q-152 0 -224 82t-72 222q0 124 44 224t136 161q94 62 221 62q151 0 222 -83q70 -82 70 -219q0 -195 -103 -320q-104 -126 -291 -126zM342 106q74 0 125 48q52 49 74 118t22 156q0 76 -36 129t-112 53
q-111 0 -168 -91q-57 -92 -57 -229q0 -80 36 -131t116 -51v-2z" />
    <glyph glyph-name="Otilde" unicode="&#xd5;" horiz-adv-x="751" 
d="M389 924q35 0 77 -21t62 -21q17 0 24 10q8 11 12 34l75 -4q0 -63 -30 -100t-81 -37q-38 0 -81 22t-61 22t-27 -10q-8 -10 -10 -37l-81 3q1 63 35 103q33 39 84 39zM328 -18q-152 0 -224 82t-72 222q0 124 44 224t136 161q94 62 221 62q151 0 222 -83q70 -82 70 -219
q0 -195 -103 -320q-104 -126 -291 -126zM344 103q74 0 125 48q52 49 74 118t22 156q0 76 -36 129t-112 53q-111 0 -168 -91q-57 -92 -57 -229q0 -80 36 -131t116 -51v-2z" />
    <glyph glyph-name="Odieresis" unicode="&#xd6;" horiz-adv-x="751" 
d="M239 843q0 42 29 68t74 26q37 0 57 -19q21 -20 21 -51q0 -42 -28 -67t-72 -25q-38 0 -58 19q-21 19 -21 52zM473 840q0 42 29 68t74 26q37 0 57 -19q21 -20 21 -51q0 -41 -28 -66q-29 -26 -72 -26q-38 0 -58 19q-21 19 -21 52zM322 -21q-152 0 -224 82t-72 222
q0 124 44 224t136 161q94 62 221 62q151 0 222 -83q70 -82 70 -219q0 -195 -103 -320q-104 -126 -291 -126zM338 100q74 0 125 48q52 49 74 118t22 156q0 76 -36 129t-112 53q-111 0 -168 -91q-57 -92 -57 -229q0 -80 36 -131t116 -51v-2z" />
    <glyph glyph-name="multiply" unicode="&#xd7;" horiz-adv-x="569" 
d="M264 237l-112 -99l-73 84l113 99l-84 100l96 84l84 -99l113 99l73 -84l-114 -100l86 -99l-97 -84z" />
    <glyph glyph-name="Oslash" unicode="&#xd8;" horiz-adv-x="751" 
d="M327 -12q-8 0 -18 0.5t-23 1.5l-31 -69h-141l47 104q-130 70 -130 266q0 124 44 224t136 161q94 62 221 62q26 0 49 -3l25 55h141l-43 -95q119 -74 119 -261q0 -195 -103 -320q-104 -126 -291 -126h-2zM190 294q0 -83 34 -129l202 449h-11q-111 0 -168 -91
q-57 -92 -57 -229zM342 110q74 0 125 48q52 49 74 118t22 156q0 66 -26 115l-197 -436h3z" />
    <glyph glyph-name="Ugrave" unicode="&#xd9;" horiz-adv-x="700" 
d="M426 916l71 -140l-107 -8l-125 148h161zM626 260q-37 -271 -318 -271q-131 0 -195 53q-63 52 -63 159q0 19 1.5 36t3.5 33l63 454h153l-61 -444q-2 -19 -3.5 -34t-1.5 -26q0 -56 26 -84q25 -27 87 -27q73 0 108 38t47 129l63 448h152z" />
    <glyph glyph-name="Uacute" unicode="&#xda;" horiz-adv-x="700" 
d="M438 916h163l-167 -148l-105 8zM626 260q-37 -271 -318 -271q-131 0 -195 53q-63 52 -63 159q0 19 1.5 36t3.5 33l63 454h153l-61 -444q-2 -19 -3.5 -34t-1.5 -26q0 -56 26 -84q25 -27 87 -27q73 0 108 38t47 129l63 448h152z" />
    <glyph glyph-name="Ucircumflex" unicode="&#xdb;" horiz-adv-x="700" 
d="M478 769l-61 73l-85 -74l-102 7l127 141h140l82 -141zM626 260q-37 -271 -318 -271q-131 0 -195 53q-63 52 -63 159q0 19 1.5 36t3.5 33l63 454h153l-61 -444q-2 -19 -3.5 -34t-1.5 -26q0 -56 26 -84q25 -27 87 -27q73 0 108 38t47 129l63 448h152z" />
    <glyph glyph-name="Udieresis" unicode="&#xdc;" horiz-adv-x="700" 
d="M208 843q0 42 29 68t74 26q37 0 57 -19q21 -20 21 -51q0 -42 -28 -67t-72 -25q-38 0 -58 19q-21 19 -21 52zM442 840q0 42 29 68t74 26q37 0 57 -19q21 -20 21 -51q0 -41 -28 -66q-29 -26 -72 -26q-38 0 -58 19q-21 19 -21 52zM622 254q-37 -271 -318 -271
q-131 0 -195 53q-63 52 -63 159q0 19 1.5 36t3.5 33l63 454h153l-61 -444q-2 -19 -3.5 -34t-1.5 -26q0 -56 26 -84q25 -27 87 -27q73 0 108 38t47 129l63 448h152z" />
    <glyph glyph-name="Yacute" unicode="&#xdd;" horiz-adv-x="597" 
d="M374 916h163l-167 -148l-105 8zM373 273q-7 -52 -16.5 -120t-21.5 -153h-154l39 274l-185 450h160l115 -314h4l193 314h162l-296 -450v-1z" />
    <glyph glyph-name="Thorn" unicode="&#xde;" horiz-adv-x="638" 
d="M203 -1h-153l100 724h152l-15 -117h97q126 0 182 -55q57 -56 57 -150q0 -128 -78 -198q-77 -70 -231 -70h-89zM300 251q77 0 119 30t42 111q0 53 -31 74q-32 21 -87 21h-71l-33 -237z" />
    <glyph glyph-name="germandbls" unicode="&#xdf;" horiz-adv-x="659" 
d="M-15 -208l99 725q19 136 95 195t203 59q106 0 165 -46q60 -47 60 -126q0 -77 -41 -124q-40 -46 -95 -66v-3q27 -8 47 -18q22 -11 44 -30q23 -20 35 -54q12 -35 12 -81q0 -95 -58 -165t-168 -70q-103 0 -159 47l39 102q47 -35 98 -35q41 0 70 30q28 29 28 95
q0 110 -122 110h-36l15 104h17q60 0 90 38q30 37 30 96q0 40 -22 61q-23 21 -63 21q-55 0 -86 -28q-32 -29 -42 -106l-102 -735z" />
    <glyph glyph-name="agrave" unicode="&#xe0;" horiz-adv-x="614" 
d="M503 124q-1 -4 -1 -15q0 -24 26 -24q12 0 32 5l-9 -82q-38 -18 -93 -18q-88 0 -99 71q-63 -73 -163 -73q-82 0 -129 50q-46 49 -46 153q0 157 74 249q73 91 180 91q82 0 135 -52l8 42h141zM389 382q-35 32 -82 32q-45 0 -75 -36q-29 -35 -40 -79q-10 -41 -10 -90
q0 -105 78 -105q49 0 96 42zM318 571l-111 171h161l51 -162z" />
    <glyph glyph-name="aacute" unicode="&#xe1;" horiz-adv-x="614" 
d="M503 124q-1 -4 -1 -15q0 -24 26 -24q12 0 32 5l-9 -82q-38 -18 -93 -18q-88 0 -99 71q-63 -73 -163 -73q-82 0 -129 50q-46 49 -46 153q0 157 74 249q73 91 180 91q82 0 135 -52l8 42h141zM389 382q-35 32 -82 32q-45 0 -75 -36q-29 -35 -40 -79q-10 -41 -10 -90
q0 -105 78 -105q49 0 96 42zM353 742h163l-160 -171l-99 9z" />
    <glyph glyph-name="acircumflex" unicode="&#xe2;" horiz-adv-x="614" 
d="M410 576l-60 95l-85 -96l-109 6l132 164h144l78 -164zM503 124q-1 -4 -1 -15q0 -24 26 -24q12 0 32 5l-9 -82q-38 -18 -93 -18q-88 0 -99 71q-63 -73 -163 -73q-82 0 -129 50q-46 49 -46 153q0 157 74 249q73 91 180 91q82 0 135 -52l8 42h141zM389 382q-35 32 -82 32
q-45 0 -75 -36q-29 -35 -40 -79q-10 -41 -10 -90q0 -105 78 -105q49 0 96 42z" />
    <glyph glyph-name="atilde" unicode="&#xe3;" horiz-adv-x="614" 
d="M503 124q-1 -4 -1 -15q0 -24 26 -24q12 0 32 5l-9 -82q-38 -18 -93 -18q-88 0 -99 71q-63 -73 -163 -73q-82 0 -129 50q-46 49 -46 153q0 157 74 249q73 91 180 91q82 0 135 -52l8 42h141zM389 382q-35 32 -82 32q-45 0 -75 -36q-29 -35 -40 -79q-10 -41 -10 -90
q0 -105 78 -105q49 0 96 42zM279 728q35 0 77 -21t62 -21q17 0 24 10q8 11 12 34l75 -4q-3 -65 -30 -102t-79 -37q-38 0 -81 22t-61 22t-27 -10q-8 -10 -10 -37l-81 3q3 67 36 104q33 38 84 38z" />
    <glyph glyph-name="adieresis" unicode="&#xe4;" horiz-adv-x="614" 
d="M503 124q-1 -4 -1 -15q0 -24 26 -24q12 0 32 5l-9 -82q-38 -18 -93 -18q-88 0 -99 71q-63 -73 -163 -73q-82 0 -129 50q-46 49 -46 153q0 157 74 249q73 91 180 91q82 0 135 -52l8 42h141zM389 382q-35 32 -82 32q-45 0 -75 -36q-29 -35 -40 -79q-10 -41 -10 -90
q0 -105 78 -105q49 0 96 42zM141 666q0 42 29 68t74 26q37 0 57 -19q21 -20 21 -51q0 -41 -28 -66q-29 -26 -72 -26q-38 0 -58 19q-21 19 -21 52zM374 664q0 42 29 68t74 26q37 0 57 -19q21 -20 21 -52q0 -42 -28 -67t-72 -25q-38 0 -58 19q-21 19 -21 52z" />
    <glyph glyph-name="aring" unicode="&#xe5;" horiz-adv-x="614" 
d="M464 690q0 -56 -36 -87q-37 -32 -92 -32q-45 0 -73 23q-27 22 -27 63q0 57 38 90q37 33 92 33q44 0 71 -24t27 -66zM344 629q22 0 36 14t14 39q0 36 -38 36q-21 0 -37 -14q-15 -14 -15 -38q0 -36 39 -36zM504 123q-1 -4 -1 -15q0 -24 26 -24q12 0 32 5l-9 -82
q-38 -18 -93 -18q-88 0 -99 71q-63 -73 -163 -73q-82 0 -129 50q-46 49 -46 153q0 157 74 249q73 91 180 91q82 0 135 -52l8 42h141zM390 381q-35 32 -82 32q-45 0 -75 -36q-29 -35 -40 -79q-10 -41 -10 -90q0 -105 78 -105q49 0 96 42z" />
    <glyph glyph-name="ae" unicode="&#xe6;" horiz-adv-x="859" 
d="M572 -15q-120 0 -175 73q-88 -73 -195 -73q-82 0 -130 50q-48 49 -48 153q0 157 74 249q73 91 180 91q82 0 135 -52l8 42h108l-5 -32q51 42 140 42q83 0 124 -40q42 -41 42 -103q0 -35 -13 -61q-14 -28 -31 -45q-19 -19 -51 -32q-33 -14 -57 -21q-12 -4 -27.5 -7
t-35.5 -6t-34 -4.5t-22 -2.5t-21 -1.5t-30 -2.5q0 -55 23 -78q22 -22 63 -22q71 0 98 74l120 -29q-24 -75 -87 -117t-156 -42zM357 142q-6 31 -6 67q0 99 39 171q-34 31 -81 31q-45 0 -75 -36q-29 -35 -40 -79q-10 -41 -10 -90q0 -105 78 -105q49 0 96 42zM632 425
q-48 0 -79 -34q-32 -35 -39 -96q36 1 63 6q14 2 27 5t27 8q28 9 41 24q14 16 14 38q0 47 -53 47z" />
    <glyph glyph-name="ccedilla" unicode="&#xe7;" horiz-adv-x="545" 
d="M131 -162q28 -12 54 -12q24 0 40 11q15 10 15 32q0 19 -15 27q-15 7 -45 9l23 85q-89 12 -136 71q-46 58 -46 149q0 150 79 235t214 85q97 0 149 -52q53 -53 53 -141v-9v-9l-132 -9v14q0 95 -78 95q-54 0 -90 -46q-36 -47 -36 -156q0 -113 86 -113q80 0 106 92l125 -20
q-21 -89 -79 -135t-144 -52l-9 -34q74 -14 74 -81q0 -59 -40 -90t-103 -31q-46 0 -82 17z" />
    <glyph glyph-name="egrave" unicode="&#xe8;" horiz-adv-x="531" 
d="M240 -13q-116 0 -168 63q-52 62 -52 163q0 145 83 231t210 86q94 0 139 -39t45 -103q0 -102 -110 -147q-65 -28 -210 -40q2 -47 19 -73q18 -27 69 -27q72 0 98 74l120 -29q-24 -74 -87 -116t-155 -42zM300 425q-46 0 -78 -35t-39 -93q61 2 104 15q67 19 67 69
q0 45 -53 45zM300 570l-111 171h161l51 -162z" />
    <glyph glyph-name="eacute" unicode="&#xe9;" horiz-adv-x="531" 
d="M240 -13q-116 0 -168 63q-52 62 -52 163q0 145 83 231t210 86q94 0 139 -39t45 -103q0 -102 -110 -147q-65 -28 -210 -40q2 -47 19 -73q18 -27 69 -27q72 0 98 74l120 -29q-24 -74 -87 -116t-155 -42zM300 425q-46 0 -78 -35t-39 -93q61 2 104 15q67 19 67 69
q0 45 -53 45zM335 741h163l-160 -171l-99 9z" />
    <glyph glyph-name="ecircumflex" unicode="&#xea;" horiz-adv-x="531" 
d="M394 576l-60 95l-85 -96l-109 6l132 164h144l78 -164zM240 -13q-116 0 -168 63q-52 62 -52 163q0 145 83 231t210 86q94 0 139 -39t45 -103q0 -102 -110 -147q-65 -28 -210 -40q2 -47 19 -73q18 -27 69 -27q72 0 98 74l120 -29q-24 -74 -87 -116t-155 -42zM300 425
q-46 0 -78 -35t-39 -93q61 2 104 15q67 19 67 69q0 45 -53 45z" />
    <glyph glyph-name="edieresis" unicode="&#xeb;" horiz-adv-x="531" 
d="M240 -13q-116 0 -168 63q-52 62 -52 163q0 145 83 231t210 86q94 0 139 -39t45 -103q0 -102 -110 -147q-65 -28 -210 -40q2 -47 19 -73q18 -27 69 -27q72 0 98 74l120 -29q-24 -74 -87 -116t-155 -42zM300 425q-46 0 -78 -35t-39 -93q61 2 104 15q67 19 67 69
q0 45 -53 45zM123 665q0 42 29 68t74 26q37 0 57 -19q21 -20 21 -51q0 -41 -28 -66q-29 -26 -72 -26q-38 0 -58 19q-21 19 -21 52zM356 663q0 42 29 68t74 26q37 0 57 -19q21 -20 21 -52q0 -42 -28 -67t-72 -25q-38 0 -58 19q-21 19 -21 52z" />
    <glyph glyph-name="igrave" unicode="&#xec;" horiz-adv-x="268" 
d="M163 0h-151l73 521h151zM148 572l-111 171h161l51 -162z" />
    <glyph glyph-name="iacute" unicode="&#xed;" horiz-adv-x="268" 
d="M163 0h-151l73 521h151zM183 743h163l-160 -171l-99 9z" />
    <glyph glyph-name="icircumflex" unicode="&#xee;" horiz-adv-x="268" 
d="M240 576l-60 95l-85 -96l-109 6l132 164h144l78 -164zM163 0h-151l73 521h151z" />
    <glyph glyph-name="idieresis" unicode="&#xef;" horiz-adv-x="268" 
d="M163 0h-151l73 521h151zM-29 667q0 42 29 68t74 26q37 0 57 -19q21 -20 21 -51q0 -41 -28 -66q-29 -26 -72 -26q-38 0 -58 19q-21 19 -21 52zM204 665q0 42 29 68t74 26q37 0 57 -19q21 -20 21 -52q0 -42 -28 -67t-72 -25q-38 0 -58 19q-21 19 -21 52z" />
    <glyph glyph-name="eth" unicode="&#xf0;" horiz-adv-x="588" 
d="M19 213q0 121 68 207q67 85 189 85q74 0 126 -40q2 -2 5 5q-28 78 -98 133t-160 80l93 97q70 -24 129 -63l92 59l71 -94l-72 -46q86 -106 86 -250q0 -398 -301 -398q-227 0 -227 227zM298 395q-66 0 -96 -57t-30 -137q0 -109 85 -109q42 0 72 27q29 26 43 72q13 45 18 86
q2 20 3.5 42t1.5 45q-42 33 -98 33z" />
    <glyph glyph-name="ntilde" unicode="&#xf1;" horiz-adv-x="583" 
d="M160 -1h-151l73 521h141l-9 -68l1 -1q80 79 184 79q136 0 136 -133q0 -20 -3 -42l-50 -355h-151l47 331q1 9 1.5 15t0.5 8q0 55 -52 55q-56 0 -117 -52zM267 728q35 0 77 -21t62 -21q17 0 24 10q8 11 12 34l75 -4q-3 -65 -30 -102t-79 -37q-38 0 -81 22t-61 22t-27 -10
q-8 -10 -10 -37l-81 3q3 67 36 104q33 38 84 38z" />
    <glyph glyph-name="ograve" unicode="&#xf2;" horiz-adv-x="587" 
d="M247 -10q-227 0 -227 222q0 140 78 230t224 90q222 0 222 -224q0 -87 -30 -157q-30 -71 -99 -117q-68 -46 -167 -46zM257 95q38 0 64 22q27 22 40 58q13 34 19 70q6 34 6 70q0 111 -83 111q-38 0 -65 -21t-40 -55q-13 -32 -19 -69q-6 -35 -6 -70q0 -116 86 -116h-2z
M304 574l-111 171h161l51 -162z" />
    <glyph glyph-name="oacute" unicode="&#xf3;" horiz-adv-x="587" 
d="M247 -10q-227 0 -227 222q0 140 78 230t224 90q222 0 222 -224q0 -87 -30 -157q-30 -71 -99 -117q-68 -46 -167 -46zM257 95q38 0 64 22q27 22 40 58q13 34 19 70q6 34 6 70q0 111 -83 111q-38 0 -65 -21t-40 -55q-13 -32 -19 -69q-6 -35 -6 -70q0 -116 86 -116h-2z
M339 745h163l-160 -171l-99 9z" />
    <glyph glyph-name="ocircumflex" unicode="&#xf4;" horiz-adv-x="587" 
d="M399 576l-60 95l-85 -96l-109 6l132 164h144l78 -164zM247 -10q-227 0 -227 222q0 140 78 230t224 90q222 0 222 -224q0 -87 -30 -157q-30 -71 -99 -117q-68 -46 -167 -46zM257 95q38 0 64 22q27 22 40 58q13 34 19 70q6 34 6 70q0 111 -83 111q-38 0 -65 -21t-40 -55
q-13 -32 -19 -69q-6 -35 -6 -70q0 -116 86 -116h-2z" />
    <glyph glyph-name="otilde" unicode="&#xf5;" horiz-adv-x="587" 
d="M247 -10q-227 0 -227 222q0 140 78 230t224 90q222 0 222 -224q0 -87 -30 -157q-30 -71 -99 -117q-68 -46 -167 -46zM257 95q38 0 64 22q27 22 40 58q13 34 19 70q6 34 6 70q0 111 -83 111q-38 0 -65 -21t-40 -55q-13 -32 -19 -69q-6 -35 -6 -70q0 -116 86 -116h-2z
M265 731q35 0 77 -21t62 -21q17 0 24 10q8 11 12 34l75 -4q-3 -65 -30 -102t-79 -37q-38 0 -81 22t-61 22t-27 -10q-8 -10 -10 -37l-81 3q3 67 36 104q33 38 84 38z" />
    <glyph glyph-name="odieresis" unicode="&#xf6;" horiz-adv-x="587" 
d="M247 -10q-227 0 -227 222q0 140 78 230t224 90q222 0 222 -224q0 -87 -30 -157q-30 -71 -99 -117q-68 -46 -167 -46zM257 95q38 0 64 22q27 22 40 58q13 34 19 70q6 34 6 70q0 111 -83 111q-38 0 -65 -21t-40 -55q-13 -32 -19 -69q-6 -35 -6 -70q0 -116 86 -116h-2z
M127 669q0 42 29 68t74 26q37 0 57 -19q21 -20 21 -51q0 -41 -28 -66q-29 -26 -72 -26q-38 0 -58 19q-21 19 -21 52zM360 667q0 42 29 68t74 26q37 0 57 -19q21 -20 21 -52q0 -42 -28 -67t-72 -25q-38 0 -58 19q-21 19 -21 52z" />
    <glyph glyph-name="divide" unicode="&#xf7;" horiz-adv-x="569" 
d="M331 164q0 -37 -23 -60q-22 -22 -66 -22q-69 0 -69 60q0 38 24 62t67 24q33 0 52 -17q18 -17 18 -45zM76 261l16 116h387l-16 -116h-387zM375 493q0 -38 -23 -61q-22 -22 -66 -22q-70 0 -70 60q0 38 24 62t68 24q35 0 52 -16q18 -17 18 -45z" />
    <glyph glyph-name="oslash" unicode="&#xf8;" horiz-adv-x="587" 
d="M247 -12q-22 0 -43 3l-30 -63h-107l45 94q-92 57 -92 191q0 138 78 228t224 90q7 0 16 -0.5t20 -1.5l31 63h107l-44 -91q92 -53 92 -203q0 -126 -77 -218t-219 -92h-1zM172 202q0 -32 4 -47l130 267h-3q-38 0 -65 -21t-40 -55q-13 -33 -19 -70q-6 -36 -6 -73zM256 93
q39 0 65 22q27 22 40 58q7 18 11.5 36t7.5 35q6 34 6 72q0 9 -1 19.5t-3 22.5l-129 -266h5z" />
    <glyph glyph-name="ugrave" unicode="&#xf9;" horiz-adv-x="577" 
d="M397 521h151l-73 -521h-127l2 64h-1h-1q-29 -32 -78 -55q-47 -22 -100 -22q-142 0 -142 139q0 19 3 42l49 353h151l-46 -331q-1 -8 -1.5 -13.5t-0.5 -8.5q0 -60 56 -60q53 0 106 50zM301 572l-111 171h161l51 -162z" />
    <glyph glyph-name="uacute" unicode="&#xfa;" horiz-adv-x="577" 
d="M397 521h151l-73 -521h-127l2 64h-1h-1q-29 -32 -78 -55q-47 -22 -100 -22q-142 0 -142 139q0 19 3 42l49 353h151l-46 -331q-1 -8 -1.5 -13.5t-0.5 -8.5q0 -60 56 -60q53 0 106 50zM336 743h163l-160 -171l-99 9z" />
    <glyph glyph-name="ucircumflex" unicode="&#xfb;" horiz-adv-x="577" 
d="M392 576l-60 95l-85 -96l-109 6l132 164h144l78 -164zM397 521h151l-73 -521h-127l2 64h-1h-1q-29 -32 -78 -55q-47 -22 -100 -22q-142 0 -142 139q0 19 3 42l49 353h151l-46 -331q-1 -8 -1.5 -13.5t-0.5 -8.5q0 -60 56 -60q53 0 106 50z" />
    <glyph glyph-name="udieresis" unicode="&#xfc;" horiz-adv-x="577" 
d="M397 521h151l-73 -521h-127l2 64h-1h-1q-29 -32 -78 -55q-47 -22 -100 -22q-142 0 -142 139q0 19 3 42l49 353h151l-46 -331q-1 -8 -1.5 -13.5t-0.5 -8.5q0 -60 56 -60q53 0 106 50zM124 667q0 42 29 68t74 26q37 0 57 -19q21 -20 21 -51q0 -41 -28 -66q-29 -26 -72 -26
q-38 0 -58 19q-21 19 -21 52zM357 665q0 42 29 68t74 26q37 0 57 -19q21 -20 21 -52q0 -42 -28 -67t-72 -25q-38 0 -58 19q-21 19 -21 52z" />
    <glyph glyph-name="yacute" unicode="&#xfd;" horiz-adv-x="524" 
d="M24 522h157l58 -369h2l152 369h160l-273 -557q-53 -107 -99 -147t-129 -40q-67 0 -108 22l25 104q43 -15 73 -15q32 0 52 21q19 20 48 80zM312 744h163l-160 -171l-99 9z" />
    <glyph glyph-name="thorn" unicode="&#xfe;" horiz-adv-x="593" 
d="M178 141q41 -35 90 -35q61 0 91 57t30 149q0 54 -16 77q-17 24 -55 24q-24 0 -55 -14q-30 -13 -50 -32zM114 754h149l-41 -290q76 66 166 66q73 0 117 -48q44 -49 44 -151q0 -173 -72 -258t-182 -85q-86 0 -135 51l-35 -251h-147z" />
    <glyph glyph-name="ydieresis" unicode="&#xff;" horiz-adv-x="524" 
d="M24 522h157l58 -369h2l152 369h160l-273 -557q-53 -107 -99 -147t-129 -40q-67 0 -108 22l25 104q43 -15 73 -15q32 0 52 21q19 20 48 80zM100 668q0 42 29 68t74 26q37 0 57 -19q21 -20 21 -51q0 -41 -28 -66q-29 -26 -72 -26q-38 0 -58 19q-21 19 -21 52zM333 666
q0 42 29 68t74 26q37 0 57 -19q21 -20 21 -52q0 -42 -28 -67t-72 -25q-38 0 -58 19q-21 19 -21 52z" />
    <glyph glyph-name="apostrophe" unicode="&#x2bc;" horiz-adv-x="500" 
d="M301 712h140l-112 -204l-101 14z" />
    <glyph glyph-name="tilde" unicode="&#x2dc;" horiz-adv-x="499" 
d="M312 729q35 0 77 -21t62 -21q17 0 24 10q8 11 12 34l75 -4q-3 -65 -30 -102t-79 -37q-38 0 -81 22t-61 22t-27 -10q-8 -10 -10 -37l-81 3q3 67 36 104q33 38 84 38z" />
    <glyph glyph-name="endash" unicode="&#x2013;" horiz-adv-x="499" 
d="M-18 227l15 107h499l-15 -107h-499z" />
    <glyph glyph-name="emdash" unicode="&#x2014;" horiz-adv-x="999" 
d="M-15 227l15 107h999l-15 -107h-999z" />
    <glyph glyph-name="quoteleft" unicode="&#x2018;" horiz-adv-x="242" 
d="M202 546h-146l124 244l108 -12z" />
    <glyph glyph-name="quoteright" unicode="&#x2019;" horiz-adv-x="242" 
d="M146 774h146l-124 -244l-108 12z" />
    <glyph glyph-name="quotedblleft" unicode="&#x201c;" horiz-adv-x="426" 
d="M386 546h-146l124 244l108 -12zM202 546h-146l124 244l108 -12z" />
    <glyph glyph-name="quotedblright" unicode="&#x201d;" horiz-adv-x="425" 
d="M329 774h146l-124 -244l-108 12zM146 774h146l-124 -244l-108 12z" />
    <glyph glyph-name="quotedblbase" unicode="&#x201e;" horiz-adv-x="426" 
d="M39 95h146l-124 -244l-108 12zM223 95h146l-124 -244l-108 12z" />
    <glyph glyph-name="bullet" unicode="&#x2022;" horiz-adv-x="459" 
d="M376 306q0 -85 -45 -128q-46 -44 -130 -44q-65 0 -99 30t-34 89q0 84 45 128q46 44 129 44q134 0 134 -120v1z" />
    <glyph glyph-name="ellipsis" unicode="&#x2026;" horiz-adv-x="801" 
d="M193 90q0 -102 -105 -102q-83 0 -83 71q0 102 107 102q81 0 81 -71zM460 90q0 -102 -105 -102q-83 0 -83 71q0 102 107 102q81 0 81 -71zM727 90q0 -102 -105 -102q-83 0 -83 71q0 102 107 102q81 0 81 -71z" />
    <glyph glyph-name="guilsinglleft" unicode="&#x2039;" horiz-adv-x="279" 
d="M90 103l-64 154l110 151h122l-108 -147l61 -158h-121z" />
    <glyph glyph-name="guilsinglright" unicode="&#x203a;" horiz-adv-x="278" 
d="M1 103l108 154l-68 151h122l67 -153l-108 -152h-121z" />
    <glyph glyph-name="Euro" unicode="&#x20ac;" horiz-adv-x="663" 
d="M114 474q36 119 117 191t209 72q92 0 148 -48q55 -48 55 -156v-19.5t-1 -14.5l-132 -13v12v12q0 57 -20 82q-20 24 -69 24q-98 0 -150 -144h182l-28 -88h-178q-4 -19 -9 -62h179l-27 -88h-154q4 -65 30 -97q25 -31 78 -31q56 0 84 31t48 87l122 -22q-13 -59 -42 -103
q-28 -43 -66 -67q-36 -23 -78 -34t-85 -11q-224 0 -239 248h-90l27 88h63q2 22 3.5 37.5t3.5 25.5h-64l29 88h54z" />
    <glyph glyph-name="trademark" unicode="&#x2122;" horiz-adv-x="856" 
d="M741 348v241l-88 -241h-63l-87 242v-241h-73v375h92l102 -285l104 285h86v-376h-73zM264 348h-81v309h-118v67h317v-67h-118v-309z" />
    </font>
</defs>
</svg>
