<?xml version="1.0" standalone="no"?>
<!DOCTYPE svg PUBLIC "-//W3C//DTD SVG 1.1//EN" "http://www.w3.org/Graphics/SVG/1.1/DTD/svg11.dtd" >
<svg xmlns="http://www.w3.org/2000/svg" xmlns:xlink="http://www.w3.org/1999/xlink" version="1.1">
<metadata>
Created by FontForge 20170731 at Wed Feb  6 03:45:16 2013
 By Aleksey,,,
Copyright (c) 2012 by TypeTogether. All rights reserved.
</metadata>
<defs>
<font id="AdelleSans-Italic" horiz-adv-x="735" >
  <font-face 
    font-family="Adelle Sans"
    font-weight="400"
    font-style="italic"
    font-stretch="normal"
    units-per-em="1000"
    panose-1="2 0 5 3 0 0 0 2 0 4"
    ascent="750"
    descent="-250"
    x-height="513"
    cap-height="724"
    bbox="-143 -229 1002 913"
    underline-thickness="50"
    underline-position="-150"
    unicode-range="U+000D-2122"
  />
<missing-glyph horiz-adv-x="364" 
d="M33 666h265v-666h-265v666zM265 33v600h-199v-600h199z" />
    <glyph glyph-name=".notdef" horiz-adv-x="364" 
d="M33 666h265v-666h-265v666zM265 33v600h-199v-600h199z" />
    <glyph glyph-name=".null" horiz-adv-x="0" 
 />
    <glyph glyph-name=".null" horiz-adv-x="0" 
 />
    <glyph glyph-name="nonmarkingreturn" unicode="&#xd;" horiz-adv-x="333" 
 />
    <glyph glyph-name="space" unicode=" " horiz-adv-x="214" 
 />
    <glyph glyph-name="exclam" unicode="!" horiz-adv-x="265" 
d="M76 187l58 537h101l-91 -537h-68zM159 61q0 -74 -76 -74q-60 0 -60 52q0 36 20 56t57 20q59 0 59 -53v-1z" />
    <glyph glyph-name="quotedbl" unicode="&#x22;" horiz-adv-x="379" 
d="M233 465l36 259h90l-36 -259h-90zM64 465l36 259h90l-36 -259h-90z" />
    <glyph glyph-name="numbersign" unicode="#" horiz-adv-x="607" 
d="M265 0l43 144h-121l-43 -144h-72l42 144h-115l25 66h110l44 148h-115l24 67h111l37 132h73l-38 -132h119l38 132h72l-38 -132h115l-23 -67h-112l-42 -148h114l-23 -66h-110l-43 -144h-72zM369 358h-119l-44 -148h121z" />
    <glyph glyph-name="dollar" unicode="$" horiz-adv-x="521" 
d="M414 508q-2 112 -78 129l-36 -247q20 -8 35 -15t26 -12q24 -11 50 -30q27 -20 41 -47q13 -26 13 -62q0 -104 -63 -159q-63 -56 -157 -63l-12 -84h-72l12 85q-164 20 -170 190l81 13q6 -62 27 -96t74 -42l38 261q-17 7 -31.5 13.5t-25.5 12.5t-23 13.5t-24 17.5
q-24 19 -36 48q-12 28 -12 66q0 87 58 142t150 66l12 84h73l-12 -85q146 -20 146 -189l-82 -9zM375 203q0 64 -87 102l-34 -234q55 9 88 42t33 89v1zM162 516q0 -59 73 -96l32 217q-50 -11 -78 -43t-28 -79z" />
    <glyph glyph-name="percent" unicode="%" horiz-adv-x="804" 
d="M210 374q-74 0 -108 42q-35 43 -35 110q0 91 50 152q49 60 141 60q142 0 142 -151q0 -93 -48 -153t-141 -60h-1zM215 434q104 0 104 148q0 92 -68 92q-56 0 -80 -43q-24 -44 -24 -108q0 -88 69 -88zM92 -17l543 740h84l-542 -740h-85zM565 -14q-74 0 -108 42
q-35 43 -35 110q0 91 50 152q49 60 141 60q143 0 143 -152q0 -92 -49 -151q-50 -60 -141 -60zM571 45q104 0 104 149q0 92 -68 92q-55 0 -81 -44q-25 -43 -25 -108q0 -88 70 -88v-1z" />
    <glyph glyph-name="ampersand" unicode="&#x26;" horiz-adv-x="705" 
d="M528 584q0 -81 -54 -129q-53 -47 -163 -88q22 -50 63 -114q20 -32 39 -58.5t36 -47.5q57 67 78 195h81q-25 -160 -107 -246q41 -37 82 -37q25 0 48 10l10 -64q-32 -17 -76 -17q-69 0 -133 53q-80 -54 -193 -54q-92 0 -146 48t-54 126q0 77 41 133q40 55 123 96
q-21 55 -21 111q0 89 59 143q58 54 147 54q60 0 98 -28q39 -29 39 -87zM229 331q-96 -54 -96 -153q0 -53 32 -87q31 -33 99 -33q56 0 118 36q-90 100 -153 237zM276 514q0 -47 15 -92q85 34 120 66t35 79q0 31 -16 48q-17 18 -49 18q-45 0 -75 -31q-30 -32 -30 -87v-1z" />
    <glyph glyph-name="quotesingle" unicode="'" horiz-adv-x="210" 
d="M64 465l36 259h90l-36 -259h-90z" />
    <glyph glyph-name="parenleft" unicode="(" horiz-adv-x="317" 
d="M133 -151q-90 174 -90 355q0 78 18 153q18 77 52 141q36 68 69 119q34 52 81 108h97q-112 -145 -166 -265t-54 -259q0 -172 88 -354z" />
    <glyph glyph-name="parenright" unicode=")" horiz-adv-x="317" 
d="M163 721q90 -174 90 -355q0 -78 -18 -153q-18 -77 -52 -141q-33 -64 -69 -118q-35 -53 -81 -108h-97q57 73 98.5 139t68.5 126q54 120 54 259q0 172 -88 354z" />
    <glyph glyph-name="asterisk" unicode="*" horiz-adv-x="470" 
d="M314 616l132 32l7 -41l-127 -60l62 -121l-37 -26l-89 97l-120 -99l-33 27l95 123l-113 58l20 41l126 -31l38 139h42z" />
    <glyph glyph-name="plus" unicode="+" horiz-adv-x="569" 
d="M209 128l21 153h-146l11 81h146l22 150h83l-21 -150h147l-11 -81h-147l-22 -153h-83z" />
    <glyph glyph-name="comma" unicode="," horiz-adv-x="233" 
d="M56 104h102l-118 -232l-71 9z" />
    <glyph glyph-name="hyphen" unicode="-" horiz-adv-x="316" 
d="M9 253l12 83h271l-12 -83h-271z" />
    <glyph glyph-name="period" unicode="." horiz-adv-x="230" 
d="M150 65q0 -77 -78 -77q-60 0 -60 54q0 77 79 77q59 0 59 -54z" />
    <glyph glyph-name="slash" unicode="/" horiz-adv-x="379" 
d="M-51 -92l400 847h85l-399 -847h-86z" />
    <glyph glyph-name="zero" unicode="0" horiz-adv-x="588" 
d="M248 -13q-109 0 -154 62q-45 61 -45 179q0 70 9 147q10 76 30 138q19 61 54 114t88 81q55 29 124 29q194 0 194 -230q0 -37 -1.5 -71.5t-5.5 -66.5q-39 -381 -292 -381zM254 57q163 0 196 319q4 40 5.5 71.5t1.5 54.5q0 18 -1 33t-3 27q-17 102 -108 102
q-158 0 -195 -298q-8 -56 -9 -130q0 -21 1 -38t3 -31q7 -53 33 -82q25 -28 75 -28h1z" />
    <glyph glyph-name="one" unicode="1" horiz-adv-x="412" 
d="M151 -1l85 601q-27 -14 -78 -23q-53 -9 -84 -9v71q143 12 216 85h51l-102 -724z" />
    <glyph glyph-name="two" unicode="2" horiz-adv-x="528" 
d="M3 -3l10 72l199 208q60 62 98 106t56 70q36 52 36 113q0 51 -25 75q-26 24 -78 24q-109 0 -147 -128l-79 15q21 93 86 139q64 45 155 45q85 0 132 -40q48 -41 48 -117q0 -42 -11 -80t-43 -80q-17 -22 -32 -40.5t-29 -34.5t-37.5 -40t-55.5 -57q-8 -8 -26.5 -27.5
t-49.5 -50.5q-62 -62 -90 -93h315l-11 -76z" />
    <glyph glyph-name="three" unicode="3" horiz-adv-x="550" 
d="M326 736q86 0 132 -40q47 -41 47 -111q0 -83 -51 -132q-52 -50 -123 -68l-1 -2q138 -32 138 -160q0 -107 -69 -171q-68 -64 -185 -64q-190 0 -199 166l82 17q5 -50 28 -81q24 -31 88 -31q69 0 117 42t48 125q0 119 -139 119h-63l10 71h46q82 0 132 44t50 114q0 93 -98 93
q-60 0 -93 -27t-54 -81l-79 16q52 162 237 162z" />
    <glyph glyph-name="four" unicode="4" horiz-adv-x="557" 
d="M320 0l25 178h-335l9 66l373 480h118l-66 -470h85l-10 -76h-87l-25 -178h-87zM356 254l54 382l-296 -382h242z" />
    <glyph glyph-name="five" unicode="5" horiz-adv-x="541" 
d="M220 644l-58 -238q69 51 149 51q73 0 123 -45t50 -142q0 -125 -75 -204t-200 -79q-86 0 -139 43t-58 126l80 19q4 -46 32 -81q27 -34 92 -34q70 0 123 50t53 155q0 122 -110 122q-72 0 -142 -59l-62 28l79 368h348l-11 -77z" />
    <glyph glyph-name="six" unicode="6" horiz-adv-x="573" 
d="M475 558q-5 59 -30 83q-26 24 -69 24q-49 0 -87 -28q-40 -29 -65 -75q-13 -23 -23 -47t-18 -50t-13 -52t-9 -53q32 32 83 56t104 24q82 0 126 -47t44 -126q0 -128 -73 -204t-187 -76q-196 0 -196 255q0 28 2 56.5t6 58.5q7 59 30 130q22 70 57 124q34 54 95 90
q60 36 137 36q68 0 114 -41t50 -120zM156 287q-3 -32 -3 -63q0 -166 116 -166q67 0 112 52t45 147q0 112 -100 112q-82 0 -170 -83v1z" />
    <glyph glyph-name="seven" unicode="7" horiz-adv-x="512" 
d="M31 0l384 647h-357l11 77h456l-10 -69l-387 -655h-97z" />
    <glyph glyph-name="eight" unicode="8" horiz-adv-x="540" 
d="M356 377q65 -32 99 -67t34 -100q0 -97 -73 -160q-74 -63 -193 -63q-102 0 -157 47q-54 46 -54 120q0 82 47 132q46 49 137 87q-106 55 -106 154q0 97 71 153t177 56q89 0 140 -39t51 -109q0 -130 -172 -211h-1zM259 336q-84 -36 -121 -73t-37 -100q0 -46 32 -76
q31 -30 96 -30q80 0 122 43t42 99q0 27 -11 51q-11 22 -33 39q-24 17 -41 26q-9 5 -21 10t-27 10zM286 412q78 41 115 80q36 37 36 86q0 95 -113 95q-66 0 -106 -36t-40 -93q0 -86 109 -132h-1z" />
    <glyph glyph-name="nine" unicode="9" horiz-adv-x="573" 
d="M95 166q15 -109 112 -109q96 0 151 85t69 213q-29 -31 -87 -55q-57 -24 -111 -24q-80 0 -123 51q-43 50 -43 133q0 128 72 203t186 75q105 0 152 -71t47 -191q0 -144 -33 -252q-33 -107 -105 -172q-71 -64 -177 -64q-80 0 -129 39q-50 39 -59 118zM427 432q2 22 3 38.5
t1 27.5q0 169 -116 169q-70 0 -116 -52q-47 -53 -47 -145q0 -123 99 -123q43 0 93 24t83 59v2z" />
    <glyph glyph-name="colon" unicode=":" horiz-adv-x="249" 
d="M158 65q0 -77 -78 -77q-60 0 -60 54q0 77 79 77q59 0 59 -54zM219 444q0 -77 -78 -77q-60 0 -60 54q0 77 79 77q59 0 59 -54z" />
    <glyph glyph-name="semicolon" unicode=";" horiz-adv-x="265" 
d="M56 104h102l-118 -232l-71 9zM235 444q0 -77 -78 -77q-60 0 -60 54q0 77 79 77q59 0 59 -54z" />
    <glyph glyph-name="less" unicode="&#x3c;" horiz-adv-x="570" 
d="M70 241l13 93l400 154l-11 -84l-316 -117l284 -113l-12 -80z" />
    <glyph glyph-name="equal" unicode="=" horiz-adv-x="570" 
d="M69 159l12 83h374l-12 -83h-374zM92 321l12 83h373l-12 -83h-373z" />
    <glyph glyph-name="greater" unicode="&#x3e;" horiz-adv-x="569" 
d="M470 245l-399 -146l11 84l315 113l-283 115l11 77l358 -154z" />
    <glyph glyph-name="question" unicode="?" horiz-adv-x="511" 
d="M304 726q83 0 139 -42q55 -42 55 -130q0 -207 -252 -249l-16 -119h-88l25 179q41 3 71 9t63 18t54 30t35 50q14 33 14 72q0 55 -30 82t-82 27q-113 0 -148 -116l-82 15q46 175 243 175zM233 61q0 -74 -76 -74q-60 0 -60 52q0 75 77 75q59 0 59 -53z" />
    <glyph glyph-name="at" unicode="@" horiz-adv-x="842" 
d="M606 -103q-95 -75 -264 -75q-143 0 -232 82q-90 82 -90 226q0 198 128 318q127 120 327 120q140 0 228 -73t88 -201q0 -146 -63 -224t-161 -78q-82 0 -99 56q-56 -60 -135 -60q-59 0 -87 42q-28 41 -28 106q0 112 59 186q58 73 150 73q55 0 90 -36l10 30h62l-44 -253
q-2 -14 -3.5 -24t-1.5 -18q0 -20 9 -30t35 -10q55 0 94 63t39 170q0 105 -67 162q-68 57 -187 57q-167 0 -263 -103q-96 -104 -96 -264q0 -119 69 -183q68 -64 186 -64q133 0 219 63zM500 303q-29 30 -72 30q-59 0 -96 -49q-38 -50 -38 -141q0 -93 63 -93q65 0 111 64z" />
    <glyph glyph-name="A" unicode="A" horiz-adv-x="644" 
d="M435 724l145 -724h-96l-41 220h-267l-99 -220h-94l334 724h118zM367 645h-1l-159 -351h224z" />
    <glyph glyph-name="B" unicode="B" horiz-adv-x="612" 
d="M50 1l99 724h244q189 0 189 -152q0 -83 -47 -132q-46 -47 -120 -64v-2q145 -19 145 -151q0 -224 -289 -224zM268 71q98 0 147 31q50 32 50 121q0 34 -14 59q-13 23 -42 34q-29 10 -57 15q-14 2 -32 3t-39 1h-97l-35 -263zM296 407q35 0 65 6t60 21t48 47q18 31 18 77
q0 24 -8 43q-7 17 -20 28q-12 10 -36 15t-46 6q-11 1 -26 1.5t-34 0.5h-90l-33 -246z" />
    <glyph glyph-name="C" unicode="C" horiz-adv-x="671" 
d="M615 202q-31 -112 -113 -163q-81 -51 -189 -51q-136 0 -202 78t-66 214q0 211 105 334t275 123q110 0 173 -60t63 -171v-10v-12l-85 -8v8q0 176 -157 176q-126 0 -202 -97t-76 -274q0 -227 189 -227q80 0 129 38t77 117z" />
    <glyph glyph-name="D" unicode="D" horiz-adv-x="707" 
d="M50 0l99 724h215q155 0 230 -76q75 -77 75 -214q0 -197 -105 -315q-105 -119 -314 -119h-200zM257 75q153 0 236 93q83 94 83 267q0 116 -58 165q-59 50 -171 50h-118l-79 -576z" />
    <glyph glyph-name="E" unicode="E" horiz-adv-x="557" 
d="M51 0l99 724h409l-9 -75h-321l-33 -247h300l-11 -75h-300l-34 -252h333l-11 -75h-422z" />
    <glyph glyph-name="F" unicode="F" horiz-adv-x="530" 
d="M140 0h-89l99 724h409l-9 -75h-321l-35 -258h295l-9 -74h-296z" />
    <glyph glyph-name="G" unicode="G" horiz-adv-x="706" 
d="M592 -4h-66l2 96q-26 -47 -90 -77q-65 -30 -138 -30q-130 0 -193 79t-63 217q0 210 104 332t278 122q110 0 172 -54q61 -54 61 -165v-20l-85 -9v15q0 159 -155 159q-130 0 -205 -100q-75 -101 -75 -273q0 -227 188 -227q88 0 147 54q58 54 69 125l9 68h-186l10 68h271z
" />
    <glyph glyph-name="H" unicode="H" horiz-adv-x="704" 
d="M569 0h-89l44 334h-340l-44 -334h-90l99 724h89l-43 -314h340l43 314h90z" />
    <glyph glyph-name="I" unicode="I" horiz-adv-x="274" 
d="M51 0l99 724h89l-99 -724h-89z" />
    <glyph glyph-name="J" unicode="J" horiz-adv-x="497" 
d="M378 724h89l-73 -548q-26 -188 -213 -188q-173 0 -176 167l84 14q7 -55 27 -82q19 -27 70 -27t80 25q30 25 39 93z" />
    <glyph glyph-name="K" unicode="K" horiz-adv-x="624" 
d="M191 372l356 352h107l-318 -313l232 -411h-104l-198 346l-90 -88l-36 -258h-89l99 724h89z" />
    <glyph glyph-name="L" unicode="L" horiz-adv-x="534" 
d="M51 0l99 724h89l-88 -648h316l-11 -76h-405z" />
    <glyph glyph-name="M" unicode="M" horiz-adv-x="868" 
d="M734 0h-85l86 629h-1l-296 -629h-95l-122 630h-1l-86 -630h-83l99 724h135l119 -622h2l290 622h137z" />
    <glyph glyph-name="N" unicode="N" horiz-adv-x="720" 
d="M478 0l-259 614l-85 -614h-83l99 724h118l251 -608l84 608h82l-99 -724h-108z" />
    <glyph glyph-name="O" unicode="O" 
d="M326 -13q-141 0 -210 82t-69 220q0 129 42 228t129 159t209 60q138 0 206 -81q68 -82 68 -213q0 -208 -99 -331t-275 -123zM337 63q121 0 195 99q74 100 74 269q0 53 -12 95q-38 132 -177 132q-125 0 -201 -97t-76 -265q0 -49 12 -97q37 -135 183 -135z" />
    <glyph glyph-name="P" unicode="P" horiz-adv-x="596" 
d="M138 -1h-88l99 724h214q113 0 167 -51t54 -130q0 -138 -78 -207t-224 -69h-106zM283 339q98 0 152 42t54 149q0 67 -42 93q-43 26 -128 26h-92l-42 -310h98z" />
    <glyph glyph-name="Q" unicode="Q" 
d="M326 -11q-141 0 -210 82t-69 220q0 129 42 228t129 159t209 60q138 0 206 -81q68 -82 68 -213q0 -158 -58 -268t-165 -157q74 -97 189 -107l-19 -73q-71 3 -144 50q-72 46 -108 105q-33 -6 -71 -6zM334 64q122 0 197 99t75 269q0 51 -13 96q-36 132 -176 132
q-125 0 -201 -97t-76 -265q0 -52 13 -97q34 -135 182 -135z" />
    <glyph glyph-name="R" unicode="R" horiz-adv-x="617" 
d="M554 0h-98l-118 305h-158l-42 -305h-88l99 724h228q115 0 165 -48t50 -126q0 -86 -42 -140t-124 -84zM301 377q196 0 196 170q0 58 -37 80q-38 23 -111 23h-122l-37 -273h111z" />
    <glyph glyph-name="S" unicode="S" horiz-adv-x="566" 
d="M459 522q0 65 -27 104t-101 39q-80 0 -120 -37t-40 -96q0 -28 12 -47q12 -20 33 -33q21 -14 45 -24q24 -11 54 -21q7 -1 10 -3q22 -8 39 -14t29 -11t26 -12.5t30 -18.5q32 -21 47 -53t15 -77q0 -114 -78 -171t-192 -57q-111 0 -172 53q-59 52 -64 156l85 11
q8 -68 40 -106q33 -39 118 -39q68 0 119 33t51 108q0 29 -10 49q-11 22 -33 35q-23 13 -42 21q-10 4 -22.5 8.5t-29.5 9.5q-95 30 -126 51q-74 47 -74 141q0 99 72 158q73 59 187 59q97 0 154 -48t57 -150v-9z" />
    <glyph glyph-name="T" unicode="T" horiz-adv-x="537" 
d="M182 0l88 648h-212l10 76h513l-11 -76h-211l-88 -648h-89z" />
    <glyph glyph-name="U" unicode="U" horiz-adv-x="693" 
d="M596 241q-35 -254 -290 -254q-231 0 -231 199q0 16 1 31t3 29l65 478h90l-64 -473q-2 -18 -3 -30.5t-1 -20.5q0 -70 36 -103t109 -33q87 0 135 42q47 41 61 143l65 475h89z" />
    <glyph glyph-name="V" unicode="V" horiz-adv-x="601" 
d="M199 0l-137 724h96l113 -640h2l276 640h95l-322 -724h-123z" />
    <glyph glyph-name="W" unicode="W" horiz-adv-x="880" 
d="M547 0l-67 602h-1l-232 -602h-113l-55 724h93l35 -621h1l238 621h102l70 -629h1l200 629h89l-246 -724h-115z" />
    <glyph glyph-name="X" unicode="X" horiz-adv-x="605" 
d="M447 0l-152 299l-224 -299h-100l280 372l-169 352h100l135 -289l216 289h96l-268 -356l188 -368h-102z" />
    <glyph glyph-name="Y" unicode="Y" horiz-adv-x="542" 
d="M316 283q-1 -5 -4.5 -35t-11.5 -84t-13 -95t-9 -69h-90l39 281l-179 443h94l139 -358h1l229 358h95l-289 -441h-1z" />
    <glyph glyph-name="Z" unicode="Z" horiz-adv-x="560" 
d="M-7 0l8 63l452 586h-362l11 75h471l-10 -65l-448 -584h385l-11 -75h-496z" />
    <glyph glyph-name="bracketleft" unicode="[" horiz-adv-x="272" 
d="M2 -143l122 867h168l-9 -64h-82l-104 -738h82l-8 -65h-169z" />
    <glyph glyph-name="backslash" unicode="\" horiz-adv-x="379" 
d="M235 -92l-161 847h82l162 -847h-83z" />
    <glyph glyph-name="bracketright" unicode="]" horiz-adv-x="272" 
d="M259 724l-122 -867h-168l9 64h82l104 738h-82l8 65h169z" />
    <glyph glyph-name="asciicircum" unicode="^" horiz-adv-x="571" 
d="M440 299l-158 285l-155 -285h-87l197 365h93l200 -365h-90z" />
    <glyph glyph-name="underscore" unicode="_" horiz-adv-x="500" 
d="M-10 -181v68h500v-68h-500z" />
    <glyph glyph-name="grave" unicode="`" horiz-adv-x="499" 
d="M347 572l-116 175h108l74 -163z" />
    <glyph glyph-name="a" unicode="a" horiz-adv-x="587" 
d="M470 94q-1 -4 -1 -16q0 -27 26 -27q12 0 32 5l-6 -55q-24 -10 -60 -10q-38 0 -57 18q-20 18 -18 56q-33 -36 -81 -57t-97 -21q-76 0 -121 49t-45 150q0 87 26 163t84 125q59 50 141 50q81 0 143 -55l8 45h84zM423 395q-21 21 -55 36q-35 15 -69 15q-44 0 -77 -24t-51 -64
q-18 -41 -27 -82q-9 -42 -9 -84q0 -134 99 -134q73 0 153 74z" />
    <glyph glyph-name="b" unicode="b" horiz-adv-x="585" 
d="M39 1l106 755h89l-44 -308q101 77 186 77q156 0 156 -195q0 -167 -71 -255q-71 -87 -174 -87q-88 0 -155 58h-1l-9 -46zM146 118q58 -52 129 -52q86 0 125 74q39 73 39 183q0 67 -22 96q-23 30 -69 30q-39 0 -87 -24q-47 -23 -79 -51z" />
    <glyph glyph-name="c" unicode="c" horiz-adv-x="535" 
d="M244 -12q-105 0 -156 58t-51 159q0 150 78 234t203 84q82 0 129 -48q47 -49 47 -126v-15.5t-1 -11.5l-83 -6v18q0 56 -23 87q-23 30 -78 30q-72 0 -123 -57t-51 -184q0 -78 33 -114t86 -36q107 0 140 109l79 -15q-21 -82 -82 -124q-62 -42 -144 -42h-3z" />
    <glyph glyph-name="d" unicode="d" horiz-adv-x="577" 
d="M380 1l5 59v1q-86 -72 -174 -72q-79 0 -124 48t-45 147q0 90 22 156q23 68 60 107q37 38 81 58q42 19 92 19q78 0 139 -53l39 284h90l-106 -755zM423 407q-56 47 -117 47q-87 0 -129 -76q-42 -77 -42 -187q0 -122 92 -127q30 0 60 9q55 16 99 57z" />
    <glyph glyph-name="e" unicode="e" horiz-adv-x="517" 
d="M242 -13q-106 0 -154 62q-48 61 -48 162q0 131 74 222q73 90 201 90q81 0 122 -37q42 -38 42 -96q0 -117 -134 -159q-81 -25 -215 -30q1 -64 27 -103q25 -39 98 -39q52 0 85 27t46 70l75 -17q-22 -73 -81 -112t-138 -39v-1zM309 452q-76 0 -119 -52q-44 -53 -54 -132
q106 4 177 27q82 25 82 90q0 33 -22 51q-23 18 -63 18z" />
    <glyph glyph-name="f" unicode="f" horiz-adv-x="320" 
d="M391 680q-33 13 -71 13q-37 0 -60 -20q-22 -19 -30 -71l-12 -88h143l-10 -67h-143l-93 -659h-91l93 659h-76l10 67h76l12 86q22 165 174 165q58 0 93 -18z" />
    <glyph glyph-name="g" unicode="g" horiz-adv-x="571" 
d="M296 449q-43 0 -77 -23q-33 -23 -51 -60q-18 -38 -27 -78q-9 -41 -9 -81q0 -129 97 -129q84 0 157 71l34 251q-20 22 -54 35q-36 14 -71 14h1zM380 75q-32 -32 -81 -52q-47 -19 -97 -19q-77 0 -120 48q-43 47 -43 148q0 55 14 111q14 55 42 104t79 79t117 30
q85 0 144 -57l9 47h82l-76 -544q-14 -95 -75 -144t-164 -49q-190 0 -204 161l85 14q4 -50 31 -76q27 -27 89 -27q133 0 153 123z" />
    <glyph glyph-name="h" unicode="h" horiz-adv-x="582" 
d="M131 1h-91l106 755h90l-46 -312q94 81 189 81q139 0 139 -134q0 -20 -3 -42l-48 -348h-91l47 338q3 18 3 33q0 77 -73 77q-44 0 -83 -21q-40 -21 -88 -58z" />
    <glyph glyph-name="i" unicode="i" horiz-adv-x="247" 
d="M128 0h-91l72 514h91zM245 688q0 -34 -20 -54q-19 -19 -54 -19q-26 0 -42 14q-15 13 -15 39q0 34 20 54t54 20q56 0 56 -53z" />
    <glyph glyph-name="j" unicode="j" horiz-adv-x="247" 
d="M109 515h91l-82 -585q-12 -79 -51 -115t-110 -36q-26 0 -57 6q-30 6 -43 14l19 67q37 -15 72 -15q33 0 53 18t26 62zM244 689q0 -34 -20 -54q-19 -19 -54 -19q-26 0 -42 14q-15 13 -15 39q0 34 20 54t54 20q57 0 57 -53v-1z" />
    <glyph glyph-name="k" unicode="k" horiz-adv-x="522" 
d="M367 0l-120 267l-91 -80l-26 -187h-91l106 755h91l-66 -466l248 225h108l-204 -186l145 -328h-100z" />
    <glyph glyph-name="l" unicode="l" horiz-adv-x="247" 
d="M143 755h91l-106 -755h-91z" />
    <glyph glyph-name="m" unicode="m" horiz-adv-x="865" 
d="M371 525q102 0 119 -81q97 81 186 81q68 0 96 -31q29 -32 29 -91q0 -31 -4 -54l-48 -349h-91l47 337q4 19 4 43v11q-3 56 -63 56q-65 0 -152 -72l-52 -375h-91l48 337q2 15 3 25.5t1 15.5q0 10 -1 13q-2 28 -15 42q-14 14 -45 14q-69 0 -160 -76l-52 -371h-91l72 514h84
l-11 -74h1q102 84 186 84v1z" />
    <glyph glyph-name="n" unicode="n" horiz-adv-x="582" 
d="M129 1h-91l72 514h86l-11 -71h1q93 81 194 81q137 0 137 -135q0 -20 -3 -42l-48 -348h-91l47 338q3 18 3 33q0 77 -72 77q-76 0 -171 -77z" />
    <glyph glyph-name="o" unicode="o" horiz-adv-x="577" 
d="M248 -12q-105 0 -156 56q-51 55 -51 153q0 19 1 35.5t3 30.5q17 121 88 191q73 71 191 71q105 0 153 -57t48 -152q0 -17 -1 -33.5t-3 -32.5q-15 -124 -85 -193q-71 -69 -189 -69h1zM255 56q71 0 116 51t57 150q3 30 3 59q0 135 -119 135q-72 0 -118 -49t-58 -145
q-3 -27 -3 -56q0 -144 123 -144z" />
    <glyph glyph-name="p" unicode="p" horiz-adv-x="585" 
d="M185 443q101 80 190 80q73 0 115 -47t42 -147q0 -170 -72 -255q-72 -86 -179 -86q-86 0 -148 55l-36 -255h-88l102 726h86zM436 319q0 68 -21 98t-67 30q-40 0 -88 -24q-47 -23 -79 -51l-36 -259q58 -52 124 -52q62 0 101 39t53 95q14 58 14 126z" />
    <glyph glyph-name="q" unicode="q" horiz-adv-x="574" 
d="M295 522q83 0 141 -55l7 45h85l-102 -726h-86l39 268q-86 -68 -172 -68q-79 0 -122 48q-44 49 -44 145q0 93 22 160q22 69 60 108q37 38 81 58q42 19 93 19zM131 192q0 -132 97 -132q40 0 83 20q42 19 72 48l38 277q-47 45 -117 45q-87 0 -129 -73q-42 -74 -42 -184z" />
    <glyph glyph-name="r" unicode="r" horiz-adv-x="365" 
d="M130 -1h-91l72 514h84l-11 -87q42 48 81 73q37 24 87 24q19 0 24 -1l-13 -90q-4 1 -18 1q-77 0 -165 -75z" />
    <glyph glyph-name="s" unicode="s" horiz-adv-x="486" 
d="M263 527q88 0 131 -43q44 -44 48 -115l-77 -11q-4 103 -104 103q-56 0 -81 -22t-25 -57q0 -33 24 -51q23 -17 70 -31q2 -1 7.5 -2.5t15.5 -4.5t16 -4.5t8 -2.5t7.5 -2.5t13.5 -4.5q18 -7 25 -10q9 -5 21 -12q13 -8 19 -13q7 -5 15 -17q7 -11 12 -21q2 -5 3.5 -11t3.5 -13
q3 -14 3 -30q0 -77 -57 -120q-56 -43 -151 -43q-178 0 -191 156l75 17q6 -50 33 -78t89 -28q49 0 81 19q33 19 33 63q0 37 -26 55q-26 19 -77 32q-29 7 -42 12q-14 4 -33 12q-20 7 -33 18q-14 10 -24 24q-11 15 -17 33q-6 19 -6 45q0 77 57 116t138 39z" />
    <glyph glyph-name="t" unicode="t" horiz-adv-x="381" 
d="M331 20q-53 -32 -125 -32q-133 0 -133 113q0 17 3 35l44 311h-80l9 67h80l21 148l92 13l-22 -161h141l-9 -67h-141l-43 -301q-3 -18 -3 -32q0 -28 14 -42t48 -14q46 0 93 26z" />
    <glyph glyph-name="u" unicode="u" horiz-adv-x="580" 
d="M441 515h91l-72 -514h-82l9 68q-33 -30 -87 -55q-53 -24 -106 -24q-137 0 -137 135q0 19 3 42l48 347h91l-47 -338q-3 -20 -3 -36q0 -4 0.5 -9t1.5 -11q6 -56 72 -56q83 0 165 73z" />
    <glyph glyph-name="v" unicode="v" horiz-adv-x="500" 
d="M155 0l-116 514h97l83 -427h1l202 427h93l-257 -514h-103z" />
    <glyph glyph-name="w" unicode="w" horiz-adv-x="754" 
d="M119 0l-80 514h90l58 -422l170 422h97l53 -420l172 420h91l-224 -514h-107l-49 410l-162 -410h-109z" />
    <glyph glyph-name="x" unicode="x" horiz-adv-x="475" 
d="M322 0l-103 201l-150 -201h-94l203 268l-132 246h94l99 -190l145 190h95l-198 -252l137 -262h-96z" />
    <glyph glyph-name="y" unicode="y" horiz-adv-x="479" 
d="M40 513h95l74 -414l192 414h95l-271 -546q-58 -114 -96 -152q-39 -39 -106 -39q-52 0 -89 18l16 66q36 -15 71 -15q36 0 62 32t65 119z" />
    <glyph glyph-name="z" unicode="z" horiz-adv-x="455" 
d="M-8 0l9 60l330 385h-274l10 69h379l-9 -61l-327 -382h287l-11 -71h-394z" />
    <glyph glyph-name="braceleft" unicode="{" horiz-adv-x="305" 
d="M22 324q61 0 82 59q6 19 9 50q3 29 6 77q2 23 3 40t2 28q9 85 44 123q34 37 119 37h48l-9 -68h-38q-33 0 -48 -15t-19 -46q-3 -23 -6 -76q-2 -27 -3 -46.5t-2 -31.5q-9 -83 -30 -115q-21 -31 -65 -48v-1q30 -11 44 -31q15 -21 15 -61q0 -39 -21 -121q-21 -83 -21 -108
q0 -49 62 -49h27l-9 -66h-53q-117 0 -122 89q-2 9 0 29q2 16 7.5 43t15.5 65q20 78 20 110q0 67 -63 67h-19l10 64z" />
    <glyph glyph-name="bar" unicode="|" horiz-adv-x="280" 
d="M37 -143l126 898h82l-126 -898h-82z" />
    <glyph glyph-name="braceright" unicode="}" horiz-adv-x="306" 
d="M265 265q-61 0 -82 -59q-6 -19 -9 -50q-3 -29 -6 -77q-2 -23 -2.5 -40t-1.5 -28q-9 -85 -44 -123q-34 -37 -119 -37h-48l9 68h38q33 0 48 15q16 16 20 46q3 22 6 77q2 27 3 46.5t2 31.5q9 85 30 116t65 48v1q-27 10 -43 32q-15 21 -15 61q0 38 21 121q21 82 21 108
q0 49 -62 49h-27l9 66h53q117 0 122 -89q2 -9 0 -29q-2 -16 -7 -43t-15 -65q-19 -75 -19 -110q0 -67 63 -67h19l-10 -64z" />
    <glyph glyph-name="asciitilde" unicode="~" horiz-adv-x="517" 
d="M156 417q32 0 126 -23t111 -23q20 0 29 11q9 10 9 42l58 -3q1 -8 1.5 -14t0.5 -10q0 -47 -25 -72t-64 -25q-31 0 -125 23t-113 23q-35 0 -35 -45v-9l-58 2q-1 4 -1 9.5v13.5q0 49 24 75t63 26z" />
    <glyph glyph-name="uni00A0" unicode="&#xa0;" horiz-adv-x="214" 
 />
    <glyph glyph-name="exclamdown" unicode="&#xa1;" horiz-adv-x="266" 
d="M182 325l-58 -537h-101l91 537h68zM99 449q0 74 76 74q60 0 60 -52q0 -35 -20 -55q-19 -19 -57 -19q-59 0 -59 53v-1z" />
    <glyph glyph-name="cent" unicode="&#xa2;" horiz-adv-x="516" 
d="M357 697l-14 -99q63 -9 99 -52q36 -44 36 -108q0 -15 -1 -19l-82 -5v9q0 91 -66 106l-51 -352q76 13 102 99l75 -15q-16 -67 -66 -106t-118 -48l-14 -108h-72l15 110q-152 21 -152 200q0 126 62 203t162 89l14 98zM138 310q0 -110 72 -131l50 348q-53 -12 -88 -65
q-34 -52 -34 -152z" />
    <glyph glyph-name="sterling" unicode="&#xa3;" horiz-adv-x="561" 
d="M42 75q108 85 108 177q0 36 -13 72h-103l10 71h77q-27 64 -27 127q0 96 70 156t178 60q195 0 195 -184v-8l-83 -7q0 64 -24 96t-88 32q-69 0 -112 -36t-43 -110q0 -56 27 -126h225l-10 -71h-200q8 -29 8 -64q0 -103 -98 -186h172q56 0 85 24q28 23 46 86l79 -15
q-21 -89 -73 -129t-141 -40h-327l10 74z" />
    <glyph glyph-name="yen" unicode="&#xa5;" horiz-adv-x="530" 
d="M285 200l-28 -200h-92l27 200h-130l12 69h128l12 88h-132l11 67h95l-126 300h96l113 -295h1l182 295h98l-199 -300h97l-11 -67h-131l-1 -2l-12 -86h136l-10 -69h-136z" />
    <glyph glyph-name="brokenbar" unicode="&#xa6;" horiz-adv-x="280" 
d="M37 -143l55 388h82l-55 -388h-82zM115 412l48 343h82l-48 -343h-82z" />
    <glyph glyph-name="section" unicode="&#xa7;" horiz-adv-x="556" 
d="M339 643q-64 0 -100 -33t-36 -82q0 -41 31 -66t75 -37q43 -12 87 -27t75 -46t31 -81q0 -53 -30 -93q-30 -41 -90 -81q49 -43 49 -105q0 -96 -62 -149t-161 -53q-97 0 -150 47q-53 46 -51 132l86 11q0 -122 117 -122q58 0 94 33t36 83q0 41 -31 65q-32 24 -76 36
q-45 12 -90 27q-44 15 -76 48q-31 32 -31 87q0 49 28 86t93 81q-49 39 -49 110q0 93 68 144q67 51 165 51q91 0 141 -42t50 -120v-9v-9l-86 -11v14q0 56 -25 82q-26 27 -81 27zM125 252q0 -29 21 -48q20 -19 45 -28q12 -5 29 -10t39 -12t38.5 -12t27.5 -10q89 51 89 118
q0 26 -21 44t-46 27q-13 5 -30 10t-38 12q-42 13 -66 24q-87 -57 -87 -114z" />
    <glyph glyph-name="dieresis" unicode="&#xa8;" horiz-adv-x="499" 
d="M182 666q0 32 21 50t53 18q24 0 40 -14q15 -14 15 -36q0 -31 -20 -49t-51 -18q-25 0 -41 14q-15 13 -15 38zM388 663q0 32 21 50t53 18q24 0 40 -14q15 -14 15 -36q0 -31 -19 -49q-20 -18 -51 -18q-25 0 -41 14q-15 13 -15 38z" />
    <glyph glyph-name="copyright" unicode="&#xa9;" horiz-adv-x="771" 
d="M717 325q0 -151 -93 -244t-243 -93q-161 0 -248 90t-87 233q0 152 96 244q95 91 242 91q155 0 245 -87t90 -234h-2zM383 39q127 0 201 75q74 76 74 204q0 131 -76 203q-77 72 -201 72q-121 0 -199 -75t-78 -206q0 -127 74 -199q73 -72 204 -72zM541 247q-8 -50 -34 -79
q-27 -30 -57 -39t-64 -9q-91 0 -136 53q-45 52 -45 141q0 87 48 141t134 54q63 0 103 -31q41 -32 45 -97l-59 -8q-7 85 -90 85q-50 0 -82 -35q-31 -34 -31 -110q0 -63 27 -102t83 -39q46 0 69 21q22 21 33 65z" />
    <glyph glyph-name="ordfeminine" unicode="&#xaa;" horiz-adv-x="408" 
d="M350 349v-5v-4q0 -17 17 -17q11 0 22 4l-5 -43q-18 -8 -48 -8q-56 0 -57 45q-47 -48 -115 -48q-53 0 -83 32q-30 31 -30 98q0 94 45 156t124 62q52 0 93 -35l5 29h70zM302 534q-28 28 -73 28q-52 0 -76 -48t-24 -105q0 -80 62 -80q45 0 88 43z" />
    <glyph glyph-name="guillemotleft" unicode="&#xab;" horiz-adv-x="439" 
d="M117 103l-65 156l110 149h82l-105 -146l60 -159h-82zM277 103l-65 156l110 149h82l-105 -146l60 -159h-82z" />
    <glyph glyph-name="logicalnot" unicode="&#xac;" horiz-adv-x="570" 
d="M385 191l3 94h-296l3 81h377l-6 -175h-81z" />
    <glyph glyph-name="uni00AD" unicode="&#xad;" horiz-adv-x="311" 
d="M13 253l12 83h271l-12 -83h-271z" />
    <glyph glyph-name="registered" unicode="&#xae;" horiz-adv-x="451" 
d="M239 292q-89 0 -137 50q-48 49 -48 129q0 85 54 136t134 51q86 0 135 -49q50 -50 50 -132t-51 -133t-134 -51zM379 472q0 67 -39 105q-40 38 -103 38t-103 -39t-40 -107q0 -65 39 -102q38 -37 106 -37q66 0 105 39t39 105zM325 380h-42l-44 75h-25v-75h-40v191h68
q66 0 66 -54q0 -37 -34 -50zM227 485q41 0 41 30q0 26 -35 26h-19v-56h13z" />
    <glyph glyph-name="macron" unicode="&#xaf;" horiz-adv-x="500" 
d="M202 627l10 69h291l-10 -69h-291z" />
    <glyph glyph-name="degree" unicode="&#xb0;" horiz-adv-x="313" 
d="M179 576q55 0 55 63q0 25 -14 41q-14 15 -38 15q-26 0 -41 -16q-15 -17 -15 -46q0 -24 14 -40q13 -15 39 -15v-2zM293 636q0 -53 -31 -84t-84 -31q-51 0 -80 28q-30 28 -30 78q0 54 33 86q34 32 83 32t78 -28q30 -29 30 -78z" />
    <glyph glyph-name="plusminus" unicode="&#xb1;" horiz-adv-x="569" 
d="M41 0l11 80h377l-11 -80h-377zM206 135l21 146h-147l12 81h147l20 150h84l-21 -150h147l-12 -81h-147l-20 -146h-84z" />
    <glyph glyph-name="twosuperior" unicode="&#xb2;" horiz-adv-x="360" 
d="M36 350l10 66l121 118q72 70 93 99q21 28 21 60q0 47 -54 47q-59 0 -81 -70l-71 12q14 60 58 90q45 30 106 30q59 0 92 -27t33 -76q0 -48 -27 -85q-26 -36 -99 -103l-98 -93l1 -1h188l-10 -68z" />
    <glyph glyph-name="threesuperior" unicode="&#xb3;" horiz-adv-x="379" 
d="M248 801q60 0 92 -25q33 -26 33 -72t-31 -76q-32 -31 -75 -41v-2q83 -17 83 -95q0 -69 -45 -109q-44 -40 -123 -40q-131 0 -138 109l73 13q5 -62 67 -62q36 0 59 22q24 22 24 64q0 63 -75 63h-43l8 58h30q46 0 75 24q28 24 28 62q0 48 -53 48q-32 0 -50 -15
q-19 -16 -29 -45l-71 13q35 107 162 107z" />
    <glyph glyph-name="acute" unicode="&#xb4;" horiz-adv-x="500" 
d="M385 747h113l-165 -175l-64 12z" />
    <glyph glyph-name="mu" unicode="&#xb5;" horiz-adv-x="628" 
d="M458 514h91l-72 -514h-91l9 62q-96 -75 -170 -75q-47 0 -78 31l-5 -3l-20 -191h-93l98 690h91l-48 -335q-3 -23 -3 -41q0 -76 69 -76q79 0 171 87z" />
    <glyph glyph-name="paragraph" unicode="&#xb6;" horiz-adv-x="570" 
d="M419 -133h-78l112 791h-83l-111 -791h-78l54 382q-86 8 -132 58q-47 52 -47 135q0 144 89 213q88 69 225 69h169z" />
    <glyph glyph-name="periodcentered" unicode="&#xb7;" horiz-adv-x="194" 
d="M165 315q0 -74 -76 -74q-58 0 -58 52q0 74 76 74q58 0 58 -52z" />
    <glyph glyph-name="cedilla" unicode="&#xb8;" horiz-adv-x="499" 
d="M125 -161q28 -16 54 -16q25 0 41 14q15 13 15 33q0 22 -15 33q-15 10 -51 12l31 113l56 -8l-19 -66q29 -6 48 -25q20 -20 20 -52q0 -50 -33 -78q-32 -28 -85 -28q-49 0 -78 20z" />
    <glyph glyph-name="onesuperior" unicode="&#xb9;" horiz-adv-x="304" 
d="M136 349l51 346q-8 -4 -20.5 -7t-29.5 -6q-33 -6 -51 -6v65q92 6 144 52h53l-65 -444h-82z" />
    <glyph glyph-name="ordmasculine" unicode="&#xba;" horiz-adv-x="397" 
d="M192 275q-142 0 -142 144q0 85 51 144t143 59q70 0 105 -39q34 -38 34 -106q0 -86 -49 -144q-50 -59 -142 -59v1zM200 330q91 0 105 117q1 14 1.5 24t0.5 15q0 80 -71 80q-43 0 -72 -29t-36 -87q-1 -6 -1.5 -15t-0.5 -22q0 -82 73 -82z" />
    <glyph glyph-name="guillemotright" unicode="&#xbb;" horiz-adv-x="438" 
d="M20 103l109 153l-64 152h81l66 -154l-109 -151h-83zM180 103l109 153l-64 152h81l66 -154l-109 -151h-83z" />
    <glyph glyph-name="onequarter" unicode="&#xbc;" horiz-adv-x="900" 
d="M120 281l51 346q-8 -4 -20.5 -7t-29.5 -6q-33 -6 -51 -6v65q92 6 144 52h53l-65 -444h-82zM145 -12l460 736h84l-458 -736h-86zM669 0l16 103h-210l8 56l229 286h102l-41 -277h53l-9 -65h-53l-15 -103h-80zM694 168l32 207l-168 -207h136z" />
    <glyph glyph-name="onehalf" unicode="&#xbd;" horiz-adv-x="900" 
d="M129 281l51 346q-8 -4 -20.5 -7t-29.5 -6q-33 -6 -51 -6v65q92 6 144 52h53l-65 -444h-82zM136 -12l460 736h84l-458 -736h-86zM494 1l10 66l121 118q72 70 93 99q21 28 21 60q0 47 -54 47q-59 0 -81 -70l-71 12q14 60 58 90q45 30 106 30q59 0 92 -27t33 -76
q0 -48 -27 -85q-26 -36 -99 -103l-98 -93l1 -1h188l-10 -68z" />
    <glyph glyph-name="threequarters" unicode="&#xbe;" horiz-adv-x="900" 
d="M183 -12l460 736h84l-458 -736h-86zM685 0l16 103h-210l8 56l229 286h102l-41 -277h53l-9 -65h-53l-15 -103h-80zM710 168l32 207l-168 -207h136zM218 733q60 0 92 -25q33 -26 33 -72t-31 -76q-32 -31 -75 -41v-2q83 -17 83 -95q0 -69 -45 -109q-44 -40 -123 -40
q-131 0 -138 109l73 13q5 -62 67 -62q36 0 59 22q24 22 24 64q0 63 -75 63h-43l8 58h30q46 0 75 24q28 24 28 62q0 48 -53 48q-32 0 -50 -15q-19 -16 -29 -45l-71 13q35 107 162 107z" />
    <glyph glyph-name="questiondown" unicode="&#xbf;" horiz-adv-x="482" 
d="M179 -216q-84 0 -139 42t-55 131q0 207 252 249l16 119h88l-25 -179q-41 -3 -71 -9t-63 -18t-54 -30t-34 -49q-13 -30 -13 -72q0 -55 30 -82t83 -27q113 0 148 116l82 -15q-46 -175 -243 -175zM250 449q0 74 76 74q60 0 60 -52q0 -75 -77 -75q-59 0 -59 53z" />
    <glyph glyph-name="Agrave" unicode="&#xc0;" horiz-adv-x="644" 
d="M348 913l80 -134l-68 -12l-119 146h107zM435 724l145 -724h-96l-41 220h-267l-99 -220h-94l334 724h118zM367 645h-1l-159 -351h224z" />
    <glyph glyph-name="Aacute" unicode="&#xc1;" horiz-adv-x="644" 
d="M441 913h114l-160 -146l-68 12zM435 724l145 -724h-96l-41 220h-267l-99 -220h-94l334 724h118zM367 645h-1l-159 -351h224z" />
    <glyph glyph-name="Acircumflex" unicode="&#xc2;" horiz-adv-x="644" 
d="M467 769l-74 79l-95 -81l-70 9l134 128h79l97 -128zM435 724l145 -724h-96l-41 220h-267l-99 -220h-94l334 724h118zM367 645h-1l-159 -351h224z" />
    <glyph glyph-name="Atilde" unicode="&#xc3;" horiz-adv-x="644" 
d="M325 900q33 0 76 -23t62 -23q36 0 45 52l55 -3q-4 -58 -33 -88t-69 -30q-32 0 -75 23t-63 23q-38 0 -42 -54l-56 2q4 58 33 90q28 31 69 31h-2zM433 724l145 -724h-96l-41 220h-267l-99 -220h-94l334 724h118zM365 645h-1l-159 -351h224z" />
    <glyph glyph-name="Adieresis" unicode="&#xc4;" horiz-adv-x="644" 
d="M220 828q0 31 20 51q19 19 53 19q24 0 40 -14q15 -14 15 -38q0 -31 -20 -49t-51 -18q-25 0 -41 14q-15 13 -15 38zM427 825q0 31 20 51q19 19 53 19q24 0 40 -14q15 -14 15 -38q0 -31 -19 -49q-20 -18 -51 -18q-25 0 -41 14q-15 13 -15 38zM432 718l145 -724h-96l-41 220
h-267l-99 -220h-94l334 724h118zM364 639h-1l-159 -351h224z" />
    <glyph glyph-name="Aring" unicode="&#xc5;" horiz-adv-x="644" 
d="M501 825q0 -76 -65 -108l144 -717h-96l-41 220h-267l-99 -220h-94l332 720q-36 22 -36 72q0 56 37 87q38 32 88 32q44 0 70 -22q27 -23 27 -64zM367 645h-1l-159 -351h224zM383 755q29 0 44 18t15 46q0 41 -45 41q-28 0 -44 -16q-17 -17 -17 -46q0 -42 46 -42z" />
    <glyph glyph-name="AE" unicode="&#xc6;" horiz-adv-x="973" 
d="M464 0l44 319h-212l-217 -319h-97l495 724h498l-10 -75h-320l-35 -253h299l-11 -75h-299l-34 -246h332l-11 -75h-422zM555 649h-40l-176 -256h180z" />
    <glyph glyph-name="Ccedilla" unicode="&#xc7;" horiz-adv-x="671" 
d="M219 -160q26 -16 54 -16q24 0 40 14q15 13 15 33q0 22 -15 33q-15 10 -51 12l20 72q-121 9 -180 86q-58 76 -58 204q0 211 105 334t275 123q110 0 173 -60t63 -171v-10v-12l-85 -8v8q0 176 -157 176q-126 0 -202 -97t-76 -274q0 -227 189 -227q80 0 129 38t77 117l81 -16
q-57 -199 -274 -212l-9 -33q29 -6 48 -25q20 -20 20 -52q0 -50 -33 -78q-32 -28 -85 -28q-47 0 -79 20z" />
    <glyph glyph-name="Egrave" unicode="&#xc8;" horiz-adv-x="557" 
d="M357 913l80 -134l-68 -12l-119 146h107zM51 0l99 724h409l-9 -75h-321l-33 -247h300l-11 -75h-300l-34 -252h333l-11 -75h-422z" />
    <glyph glyph-name="Eacute" unicode="&#xc9;" horiz-adv-x="557" 
d="M398 913h114l-160 -146l-68 12zM51 0l99 724h409l-9 -75h-321l-33 -247h300l-11 -75h-300l-34 -252h333l-11 -75h-422z" />
    <glyph glyph-name="Ecircumflex" unicode="&#xca;" horiz-adv-x="557" 
d="M447 769l-74 79l-95 -81l-70 9l134 128h79l97 -128zM51 0l99 724h409l-9 -75h-321l-33 -247h300l-11 -75h-300l-34 -252h333l-11 -75h-422z" />
    <glyph glyph-name="Edieresis" unicode="&#xcb;" horiz-adv-x="557" 
d="M200 828q0 31 20 51q19 19 53 19q24 0 40 -14q15 -14 15 -38q0 -31 -20 -49t-51 -18q-25 0 -41 14q-15 13 -15 38zM407 825q0 31 20 51q19 19 53 19q24 0 40 -14q15 -14 15 -38q0 -31 -19 -49q-20 -18 -51 -18q-25 0 -41 14q-15 13 -15 38zM48 -6l99 724h409l-9 -75h-321
l-33 -247h300l-11 -75h-300l-34 -252h333l-11 -75h-422z" />
    <glyph glyph-name="Igrave" unicode="&#xcc;" horiz-adv-x="274" 
d="M195 913l80 -134l-68 -12l-119 146h107zM51 0l99 724h89l-99 -724h-89z" />
    <glyph glyph-name="Iacute" unicode="&#xcd;" horiz-adv-x="274" 
d="M236 913h114l-160 -146l-68 12zM51 0l99 724h89l-99 -724h-89z" />
    <glyph glyph-name="Icircumflex" unicode="&#xce;" horiz-adv-x="274" 
d="M285 769l-74 79l-95 -81l-70 9l134 128h79l97 -128zM51 0l99 724h89l-99 -724h-89z" />
    <glyph glyph-name="Idieresis" unicode="&#xcf;" horiz-adv-x="274" 
d="M38 828q0 31 20 51q19 19 53 19q24 0 40 -14q15 -14 15 -38q0 -31 -20 -49t-51 -18q-25 0 -41 14q-15 13 -15 38zM245 825q0 31 20 51q19 19 53 19q24 0 40 -14q15 -14 15 -38q0 -31 -19 -49q-20 -18 -51 -18q-25 0 -41 14q-15 13 -15 38zM48 -6l99 724h89l-99 -724h-89z
" />
    <glyph glyph-name="Eth" unicode="&#xd0;" horiz-adv-x="717" 
d="M63 0l45 331h-70l11 72h69l44 321h215q155 0 230 -76q75 -77 75 -214q0 -197 -105 -315q-105 -119 -314 -119h-200zM270 75q153 0 236 93q83 94 83 267q0 116 -58 165q-59 50 -171 50h-118l-34 -247h216l-11 -72h-215l-35 -257z" />
    <glyph glyph-name="Ntilde" unicode="&#xd1;" horiz-adv-x="720" 
d="M370 900q33 0 76 -23t62 -23q36 0 45 52l55 -3q-4 -58 -33 -88t-69 -30q-32 0 -75 23t-63 23q-38 0 -42 -54l-56 2q4 58 33 90q28 31 69 31h-2zM476 0l-259 614l-85 -614h-83l99 724h118l251 -608l84 608h82l-99 -724h-108z" />
    <glyph glyph-name="Ograve" unicode="&#xd2;" 
d="M428 913l80 -134l-68 -12l-119 146h107zM326 -13q-141 0 -210 82t-69 220q0 129 42 228t129 159t209 60q138 0 206 -81q68 -82 68 -213q0 -208 -99 -331t-275 -123zM337 63q121 0 195 99q74 100 74 269q0 53 -12 95q-38 132 -177 132q-125 0 -201 -97t-76 -265
q0 -49 12 -97q37 -135 183 -135z" />
    <glyph glyph-name="Oacute" unicode="&#xd3;" 
d="M469 913h114l-160 -146l-68 12zM326 -13q-141 0 -210 82t-69 220q0 129 42 228t129 159t209 60q138 0 206 -81q68 -82 68 -213q0 -208 -99 -331t-275 -123zM337 63q121 0 195 99q74 100 74 269q0 53 -12 95q-38 132 -177 132q-125 0 -201 -97t-76 -265q0 -49 12 -97
q37 -135 183 -135z" />
    <glyph glyph-name="Ocircumflex" unicode="&#xd4;" 
d="M518 769l-74 79l-95 -81l-70 9l134 128h79l97 -128zM326 -13q-141 0 -210 82t-69 220q0 129 42 228t129 159t209 60q138 0 206 -81q68 -82 68 -213q0 -208 -99 -331t-275 -123zM337 63q121 0 195 99q74 100 74 269q0 53 -12 95q-38 132 -177 132q-125 0 -201 -97
t-76 -265q0 -49 12 -97q37 -135 183 -135z" />
    <glyph glyph-name="Otilde" unicode="&#xd5;" 
d="M376 900q33 0 76 -23t62 -23q36 0 45 52l55 -3q-4 -58 -33 -88t-69 -30q-32 0 -75 23t-63 23q-38 0 -42 -54l-56 2q4 58 33 90q28 31 69 31h-2zM324 -13q-141 0 -210 82t-69 220q0 129 42 228t129 159t209 60q138 0 206 -81q68 -82 68 -213q0 -208 -99 -331t-275 -123z
M335 63q121 0 195 99q74 100 74 269q0 53 -12 95q-38 132 -177 132q-125 0 -201 -97t-76 -265q0 -49 12 -97q37 -135 183 -135z" />
    <glyph glyph-name="Odieresis" unicode="&#xd6;" 
d="M271 828q0 31 20 51q19 19 53 19q24 0 40 -14q15 -14 15 -38q0 -31 -20 -49t-51 -18q-25 0 -41 14q-15 13 -15 38zM478 825q0 31 20 51q19 19 53 19q24 0 40 -14q15 -14 15 -38q0 -31 -19 -49q-20 -18 -51 -18q-25 0 -41 14q-15 13 -15 38zM323 -19q-141 0 -210 82
t-69 220q0 129 42 228t129 159t209 60q138 0 206 -81q68 -82 68 -213q0 -208 -99 -331t-275 -123zM334 57q121 0 195 99q74 100 74 269q0 53 -12 95q-38 132 -177 132q-125 0 -201 -97t-76 -265q0 -49 12 -97q37 -135 183 -135z" />
    <glyph glyph-name="multiply" unicode="&#xd7;" horiz-adv-x="570" 
d="M262 262l-120 -106l-50 58l120 106l-90 107l67 59l89 -106l121 106l50 -59l-121 -107l91 -106l-67 -58z" />
    <glyph glyph-name="Oslash" unicode="&#xd8;" 
d="M327 -13q-15 0 -30.5 1.5t-31.5 3.5l-29 -71h-87l39 94q-141 66 -141 274q0 129 42 228t129 159t209 60q14 0 28 -1.5t29 -3.5l24 57h87l-33 -80q70 -33 104 -103q35 -72 35 -163q0 -208 -99 -331t-275 -123v-1zM152 198q20 -71 69 -104l234 561q-18 3 -37 3
q-125 0 -201 -97t-76 -265q0 -49 12 -97zM335 63q121 0 195 99q74 100 74 269q0 53 -12 95q-20 67 -63 99l-233 -560q6 -1 15.5 -1.5t23.5 -0.5z" />
    <glyph glyph-name="Ugrave" unicode="&#xd9;" horiz-adv-x="693" 
d="M404 913l80 -134l-68 -12l-119 146h107zM596 241q-35 -254 -290 -254q-231 0 -231 199q0 16 1 31t3 29l65 478h90l-64 -473q-2 -18 -3 -30.5t-1 -20.5q0 -70 36 -103t109 -33q87 0 135 42q47 41 61 143l65 475h89z" />
    <glyph glyph-name="Uacute" unicode="&#xda;" horiz-adv-x="693" 
d="M445 913h114l-160 -146l-68 12zM596 241q-35 -254 -290 -254q-231 0 -231 199q0 16 1 31t3 29l65 478h90l-64 -473q-2 -18 -3 -30.5t-1 -20.5q0 -70 36 -103t109 -33q87 0 135 42q47 41 61 143l65 475h89z" />
    <glyph glyph-name="Ucircumflex" unicode="&#xdb;" horiz-adv-x="693" 
d="M494 769l-74 79l-95 -81l-70 9l134 128h79l97 -128zM596 241q-35 -254 -290 -254q-231 0 -231 199q0 16 1 31t3 29l65 478h90l-64 -473q-2 -18 -3 -30.5t-1 -20.5q0 -70 36 -103t109 -33q87 0 135 42q47 41 61 143l65 475h89z" />
    <glyph glyph-name="Udieresis" unicode="&#xdc;" horiz-adv-x="693" 
d="M247 828q0 31 20 51q19 19 53 19q24 0 40 -14q15 -14 15 -38q0 -31 -20 -49t-51 -18q-25 0 -41 14q-15 13 -15 38zM454 825q0 31 20 51q19 19 53 19q24 0 40 -14q15 -14 15 -38q0 -31 -19 -49q-20 -18 -51 -18q-25 0 -41 14q-15 13 -15 38zM593 235q-35 -254 -290 -254
q-231 0 -231 199q0 16 1 31t3 29l65 478h90l-64 -473q-2 -18 -3 -30.5t-1 -20.5q0 -70 36 -103t109 -33q87 0 135 42q47 41 61 143l65 475h89z" />
    <glyph glyph-name="Yacute" unicode="&#xdd;" horiz-adv-x="542" 
d="M371 913h114l-160 -146l-68 12zM316 283q-1 -5 -4.5 -35t-11.5 -84t-13 -95t-9 -69h-90l39 281l-179 443h94l139 -358h1l229 358h95l-289 -441h-1z" />
    <glyph glyph-name="Thorn" unicode="&#xde;" horiz-adv-x="656" 
d="M212 0h-91l102 724h90l-16 -120h122q123 0 179 -51t56 -138q0 -259 -304 -259h-116zM345 232q52 0 84 7q36 8 66 25q32 18 47 54t15 90q0 121 -163 121h-107l-42 -297h100z" />
    <glyph glyph-name="germandbls" unicode="&#xdf;" horiz-adv-x="661" 
d="M12 -213l104 751q31 228 269 228q98 0 150 -43q53 -44 53 -117q0 -138 -141 -192v-3q156 -27 156 -181q0 -110 -61 -175q-62 -66 -168 -66q-165 0 -182 146l79 19q9 -45 31 -68q22 -24 70 -24q61 0 100 44q39 43 39 123q0 140 -168 140h-40l10 70h15q82 0 123 45
q41 46 41 108q0 103 -115 103q-74 0 -117 -35q-41 -34 -55 -126l-104 -746z" />
    <glyph glyph-name="agrave" unicode="&#xe0;" horiz-adv-x="587" 
d="M470 94q-1 -4 -1 -16q0 -27 26 -27q12 0 32 5l-6 -55q-24 -10 -60 -10q-38 0 -57 18q-20 18 -18 56q-33 -36 -81 -57t-97 -21q-76 0 -121 49t-45 150q0 87 26 163t84 125q59 50 141 50q81 0 143 -55l8 45h84zM423 395q-21 21 -55 36q-35 15 -69 15q-44 0 -77 -24t-51 -64
q-18 -41 -27 -82q-9 -42 -9 -84q0 -134 99 -134q73 0 153 74zM337 568l-116 175h108l74 -163z" />
    <glyph glyph-name="aacute" unicode="&#xe1;" horiz-adv-x="587" 
d="M470 94q-1 -4 -1 -16q0 -27 26 -27q12 0 32 5l-6 -55q-24 -10 -60 -10q-38 0 -57 18q-20 18 -18 56q-33 -36 -81 -57t-97 -21q-76 0 -121 49t-45 150q0 87 26 163t84 125q59 50 141 50q81 0 143 -55l8 45h84zM423 395q-21 21 -55 36q-35 15 -69 15q-44 0 -77 -24t-51 -64
q-18 -41 -27 -82q-9 -42 -9 -84q0 -134 99 -134q73 0 153 74zM375 743h113l-165 -175l-64 12z" />
    <glyph glyph-name="acircumflex" unicode="&#xe2;" horiz-adv-x="587" 
d="M420 577l-73 115l-103 -116l-71 7l136 165h89l90 -165zM470 94q-1 -4 -1 -16q0 -27 26 -27q12 0 32 5l-6 -55q-24 -10 -60 -10q-38 0 -57 18q-20 18 -18 56q-33 -36 -81 -57t-97 -21q-76 0 -121 49t-45 150q0 87 26 163t84 125q59 50 141 50q81 0 143 -55l8 45h84z
M423 395q-21 21 -55 36q-35 15 -69 15q-44 0 -77 -24t-51 -64q-18 -41 -27 -82q-9 -42 -9 -84q0 -134 99 -134q73 0 153 74z" />
    <glyph glyph-name="atilde" unicode="&#xe3;" horiz-adv-x="587" 
d="M470 94q-1 -4 -1 -16q0 -27 26 -27q12 0 32 5l-6 -55q-24 -10 -60 -10q-38 0 -57 18q-20 18 -18 56q-33 -36 -81 -57t-97 -21q-76 0 -121 49t-45 150q0 87 26 163t84 125q59 50 141 50q81 0 143 -55l8 45h84zM423 395q-21 21 -55 36q-35 15 -69 15q-44 0 -77 -24t-51 -64
q-18 -41 -27 -82q-9 -42 -9 -84q0 -134 99 -134q73 0 153 74zM271 711q34 0 75 -23t60 -23q38 0 45 52l55 -2q-12 -118 -101 -118q-33 0 -76 23t-62 23q-36 0 -43 -55l-56 3q6 60 34 89q28 30 69 30v1z" />
    <glyph glyph-name="adieresis" unicode="&#xe4;" horiz-adv-x="587" 
d="M470 94q-1 -4 -1 -16q0 -27 26 -27q12 0 32 5l-6 -55q-24 -10 -60 -10q-38 0 -57 18q-20 18 -18 56q-33 -36 -81 -57t-97 -21q-76 0 -121 49t-45 150q0 87 26 163t84 125q59 50 141 50q81 0 143 -55l8 45h84zM423 395q-21 21 -55 36q-35 15 -69 15q-44 0 -77 -24t-51 -64
q-18 -41 -27 -82q-9 -42 -9 -84q0 -134 99 -134q73 0 153 74zM182 662q0 32 21 50t53 18q24 0 40 -14q15 -14 15 -36q0 -31 -20 -49t-51 -18q-25 0 -41 14q-15 13 -15 38zM388 659q0 32 21 50t53 18q24 0 40 -14q15 -14 15 -36q0 -31 -19 -49q-20 -18 -51 -18q-25 0 -41 14
q-15 13 -15 38z" />
    <glyph glyph-name="aring" unicode="&#xe5;" horiz-adv-x="587" 
d="M449 688q0 -53 -33 -84q-32 -31 -88 -31q-44 0 -69 21t-25 60q0 55 36 87q35 31 86 31q42 0 68 -21t26 -62zM334 620q27 0 42 17q15 16 15 44q0 39 -43 39q-26 0 -42 -15t-16 -43q0 -40 44 -40v-2zM469 91q-1 -4 -1 -16q0 -27 26 -27q12 0 32 5l-6 -55q-24 -10 -60 -10
q-38 0 -57 18q-20 18 -18 56q-33 -36 -81 -57t-97 -21q-76 0 -121 49t-45 150q0 87 26 163t84 125q59 50 141 50q81 0 143 -55l8 45h84zM422 392q-21 21 -55 36q-35 15 -69 15q-44 0 -77 -24t-51 -64q-18 -41 -27 -82q-9 -42 -9 -84q0 -134 99 -134q73 0 153 74z" />
    <glyph glyph-name="ae" unicode="&#xe6;" horiz-adv-x="853" 
d="M574 -14q-120 0 -169 85q-92 -85 -199 -85q-77 0 -122 49t-45 150q0 87 26 163t84 125q59 50 141 50q81 0 143 -55l8 45h73l-4 -33q58 43 144 43q79 0 119 -37q41 -38 41 -96q0 -35 -14 -65q-14 -29 -33 -48t-54 -34q-32 -14 -61 -22q-27 -7 -68 -12q-40 -4 -62 -6
q-20 -1 -56 -3q0 -70 28 -105q28 -36 96 -36q51 0 84 27q34 28 47 70l75 -17q-22 -73 -81 -112t-138 -39zM380 132q-8 40 -8 78q0 108 49 187q-53 50 -126 50q-44 0 -77 -24t-51 -64q-18 -41 -27 -82q-9 -42 -9 -84q0 -134 99 -134q74 0 151 73h-1zM643 451q-75 0 -120 -52
q-44 -52 -55 -132q97 3 169 24q89 26 89 93q0 33 -22 51q-23 18 -63 18z" />
    <glyph glyph-name="ccedilla" unicode="&#xe7;" horiz-adv-x="535" 
d="M138 -162q28 -16 54 -16q25 0 41 14q15 13 15 33q0 22 -15 33q-15 10 -51 12l20 74q-86 11 -126 67q-41 58 -41 148q0 150 78 234t203 84q82 0 129 -48q47 -49 47 -126v-15.5t-1 -11.5l-83 -6v18q0 56 -23 87q-23 30 -78 30q-72 0 -123 -57t-51 -184q0 -78 33 -114
t86 -36q107 0 140 109l79 -15q-20 -80 -75 -120q-56 -41 -133 -45l-9 -33q29 -6 48 -25q20 -20 20 -52q0 -50 -33 -78q-32 -28 -85 -28q-49 0 -78 20z" />
    <glyph glyph-name="egrave" unicode="&#xe8;" horiz-adv-x="517" 
d="M242 -13q-106 0 -154 62q-48 61 -48 162q0 131 74 222q73 90 201 90q81 0 122 -37q42 -38 42 -96q0 -117 -134 -159q-81 -25 -215 -30q1 -64 27 -103q25 -39 98 -39q52 0 85 27t46 70l75 -17q-22 -73 -81 -112t-138 -39v-1zM309 452q-76 0 -119 -52q-44 -53 -54 -132
q106 4 177 27q82 25 82 90q0 33 -22 51q-23 18 -63 18zM334 569l-116 175h108l74 -163z" />
    <glyph glyph-name="eacute" unicode="&#xe9;" horiz-adv-x="517" 
d="M242 -13q-106 0 -154 62q-48 61 -48 162q0 131 74 222q73 90 201 90q81 0 122 -37q42 -38 42 -96q0 -117 -134 -159q-81 -25 -215 -30q1 -64 27 -103q25 -39 98 -39q52 0 85 27t46 70l75 -17q-22 -73 -81 -112t-138 -39v-1zM309 452q-76 0 -119 -52q-44 -53 -54 -132
q106 4 177 27q82 25 82 90q0 33 -22 51q-23 18 -63 18zM372 744h113l-165 -175l-64 12z" />
    <glyph glyph-name="ecircumflex" unicode="&#xea;" horiz-adv-x="517" 
d="M418 577l-73 115l-103 -116l-71 7l136 165h89l90 -165zM242 -13q-106 0 -154 62q-48 61 -48 162q0 131 74 222q73 90 201 90q81 0 122 -37q42 -38 42 -96q0 -117 -134 -159q-81 -25 -215 -30q1 -64 27 -103q25 -39 98 -39q52 0 85 27t46 70l75 -17q-22 -73 -81 -112
t-138 -39v-1zM309 452q-76 0 -119 -52q-44 -53 -54 -132q106 4 177 27q82 25 82 90q0 33 -22 51q-23 18 -63 18z" />
    <glyph glyph-name="edieresis" unicode="&#xeb;" horiz-adv-x="517" 
d="M242 -13q-106 0 -154 62q-48 61 -48 162q0 131 74 222q73 90 201 90q81 0 122 -37q42 -38 42 -96q0 -117 -134 -159q-81 -25 -215 -30q1 -64 27 -103q25 -39 98 -39q52 0 85 27t46 70l75 -17q-22 -73 -81 -112t-138 -39v-1zM309 452q-76 0 -119 -52q-44 -53 -54 -132
q106 4 177 27q82 25 82 90q0 33 -22 51q-23 18 -63 18zM169 663q0 32 21 50t53 18q24 0 40 -14q15 -14 15 -36q0 -31 -20 -49t-51 -18q-25 0 -41 14q-15 13 -15 38zM375 660q0 32 21 50t53 18q24 0 40 -14q15 -14 15 -36q0 -31 -19 -49q-20 -18 -51 -18q-25 0 -41 14
q-15 13 -15 38z" />
    <glyph glyph-name="igrave" unicode="&#xec;" horiz-adv-x="247" 
d="M128 0h-91l72 514h91zM169 572l-116 175h108l74 -163z" />
    <glyph glyph-name="iacute" unicode="&#xed;" horiz-adv-x="247" 
d="M128 0h-91l72 514h91zM207 747h113l-165 -175l-64 12z" />
    <glyph glyph-name="icircumflex" unicode="&#xee;" horiz-adv-x="247" 
d="M252 577l-73 115l-103 -116l-71 7l136 165h89l90 -165zM128 0h-91l72 514h91z" />
    <glyph glyph-name="idieresis" unicode="&#xef;" horiz-adv-x="247" 
d="M128 0h-91l72 514h91zM4 666q0 32 21 50t53 18q24 0 40 -14q15 -14 15 -36q0 -31 -20 -49t-51 -18q-25 0 -41 14q-15 13 -15 38zM210 663q0 32 21 50t53 18q24 0 40 -14q15 -14 15 -36q0 -31 -19 -49q-20 -18 -51 -18q-25 0 -41 14q-15 13 -15 38z" />
    <glyph glyph-name="eth" unicode="&#xf0;" horiz-adv-x="580" 
d="M305 658q-49 31 -128 49l55 58q86 -25 145 -66l105 60l32 -55l-86 -48q100 -103 100 -279q0 -29 -1.5 -56t-5.5 -53q-8 -52 -27 -104q-20 -54 -49 -90t-80 -61q-50 -24 -114 -24q-210 0 -210 220q0 121 69 207t188 86q82 0 140 -47q1 0 1 1l2 1q-20 101 -81 161l-99 -55
l-32 53zM304 427q-82 0 -127 -64q-45 -65 -45 -162q0 -62 29 -103q28 -40 92 -40q186 0 188 315q-20 22 -57 39q-36 16 -81 16z" />
    <glyph glyph-name="ntilde" unicode="&#xf1;" horiz-adv-x="582" 
d="M129 1h-91l72 514h86l-11 -71h1q93 81 194 81q137 0 137 -135q0 -20 -3 -42l-48 -348h-91l47 338q3 18 3 33q0 77 -72 77q-76 0 -171 -77zM272 716q34 0 75 -23t60 -23q38 0 45 52l55 -2q-12 -118 -101 -118q-33 0 -76 23t-62 23q-36 0 -43 -55l-56 3q6 60 34 89
q28 30 69 30v1z" />
    <glyph glyph-name="ograve" unicode="&#xf2;" horiz-adv-x="577" 
d="M248 -12q-105 0 -156 56q-51 55 -51 153q0 19 1 35.5t3 30.5q17 121 88 191q73 71 191 71q105 0 153 -57t48 -152q0 -17 -1 -33.5t-3 -32.5q-15 -124 -85 -193q-71 -69 -189 -69h1zM255 56q71 0 116 51t57 150q3 30 3 59q0 135 -119 135q-72 0 -118 -49t-58 -145
q-3 -27 -3 -56q0 -144 123 -144zM334 571l-116 175h108l74 -163z" />
    <glyph glyph-name="oacute" unicode="&#xf3;" horiz-adv-x="577" 
d="M248 -12q-105 0 -156 56q-51 55 -51 153q0 19 1 35.5t3 30.5q17 121 88 191q73 71 191 71q105 0 153 -57t48 -152q0 -17 -1 -33.5t-3 -32.5q-15 -124 -85 -193q-71 -69 -189 -69h1zM255 56q71 0 116 51t57 150q3 30 3 59q0 135 -119 135q-72 0 -118 -49t-58 -145
q-3 -27 -3 -56q0 -144 123 -144zM372 746h113l-165 -175l-64 12z" />
    <glyph glyph-name="ocircumflex" unicode="&#xf4;" horiz-adv-x="577" 
d="M417 577l-73 115l-103 -116l-71 7l136 165h89l90 -165zM248 -12q-105 0 -156 56q-51 55 -51 153q0 19 1 35.5t3 30.5q17 121 88 191q73 71 191 71q105 0 153 -57t48 -152q0 -17 -1 -33.5t-3 -32.5q-15 -124 -85 -193q-71 -69 -189 -69h1zM255 56q71 0 116 51t57 150
q3 30 3 59q0 135 -119 135q-72 0 -118 -49t-58 -145q-3 -27 -3 -56q0 -144 123 -144z" />
    <glyph glyph-name="otilde" unicode="&#xf5;" horiz-adv-x="577" 
d="M248 -12q-105 0 -156 56q-51 55 -51 153q0 19 1 35.5t3 30.5q17 121 88 191q73 71 191 71q105 0 153 -57t48 -152q0 -17 -1 -33.5t-3 -32.5q-15 -124 -85 -193q-71 -69 -189 -69h1zM255 56q71 0 116 51t57 150q3 30 3 59q0 135 -119 135q-72 0 -118 -49t-58 -145
q-3 -27 -3 -56q0 -144 123 -144zM268 714q34 0 75 -23t60 -23q38 0 45 52l55 -2q-12 -118 -101 -118q-33 0 -76 23t-62 23q-36 0 -43 -55l-56 3q6 60 34 89q28 30 69 30v1z" />
    <glyph glyph-name="odieresis" unicode="&#xf6;" horiz-adv-x="577" 
d="M248 -12q-105 0 -156 56q-51 55 -51 153q0 19 1 35.5t3 30.5q17 121 88 191q73 71 191 71q105 0 153 -57t48 -152q0 -17 -1 -33.5t-3 -32.5q-15 -124 -85 -193q-71 -69 -189 -69h1zM255 56q71 0 116 51t57 150q3 30 3 59q0 135 -119 135q-72 0 -118 -49t-58 -145
q-3 -27 -3 -56q0 -144 123 -144zM169 665q0 32 21 50t53 18q24 0 40 -14q15 -14 15 -36q0 -31 -20 -49t-51 -18q-25 0 -41 14q-15 13 -15 38zM375 662q0 32 21 50t53 18q24 0 40 -14q15 -14 15 -36q0 -31 -19 -49q-20 -18 -51 -18q-25 0 -41 14q-15 13 -15 38z" />
    <glyph glyph-name="divide" unicode="&#xf7;" horiz-adv-x="569" 
d="M320 175q0 -35 -19 -53q-20 -18 -54 -18q-56 0 -56 51q0 35 19 54t54 19q56 0 56 -51v-2zM88 279l11 80h377l-11 -80h-377zM363 485q0 -35 -19 -54t-54 -19q-56 0 -56 51q0 34 20 54q19 19 54 19q56 0 56 -51h-1z" />
    <glyph glyph-name="oslash" unicode="&#xf8;" horiz-adv-x="577" 
d="M248 -11q-7 0 -16 0.5t-21 1.5l-28 -68h-78l36 86q-100 46 -100 189q0 19 1 35.5t3 30.5q17 121 88 191q73 71 191 71q5 0 13.5 -0.5t19.5 -1.5l27 64h78l-35 -83q98 -47 98 -189q0 -17 -1 -33.5t-3 -32.5q-15 -124 -85 -193q-71 -69 -189 -69zM132 202q0 -81 40 -117
l154 366q-3 1 -14 1q-72 0 -118 -49t-58 -145q-3 -27 -3 -56h-1zM256 57q71 0 116 51t57 150q3 30 3 59q0 76 -38 109l-154 -367q3 -1 15 -1z" />
    <glyph glyph-name="ugrave" unicode="&#xf9;" horiz-adv-x="580" 
d="M441 515h91l-72 -514h-82l9 68q-33 -30 -87 -55q-53 -24 -106 -24q-137 0 -137 135q0 19 3 42l48 347h91l-47 -338q-3 -20 -3 -36q0 -4 0.5 -9t1.5 -11q6 -56 72 -56q83 0 165 73zM333 573l-116 175h108l74 -163z" />
    <glyph glyph-name="uacute" unicode="&#xfa;" horiz-adv-x="580" 
d="M441 515h91l-72 -514h-82l9 68q-33 -30 -87 -55q-53 -24 -106 -24q-137 0 -137 135q0 19 3 42l48 347h91l-47 -338q-3 -20 -3 -36q0 -4 0.5 -9t1.5 -11q6 -56 72 -56q83 0 165 73zM386 748h113l-165 -175l-64 12z" />
    <glyph glyph-name="ucircumflex" unicode="&#xfb;" horiz-adv-x="580" 
d="M415 577l-73 115l-103 -116l-71 7l136 165h89l90 -165zM441 515h91l-72 -514h-82l9 68q-33 -30 -87 -55q-53 -24 -106 -24q-137 0 -137 135q0 19 3 42l48 347h91l-47 -338q-3 -20 -3 -36q0 -4 0.5 -9t1.5 -11q6 -56 72 -56q83 0 165 73z" />
    <glyph glyph-name="udieresis" unicode="&#xfc;" horiz-adv-x="580" 
d="M441 515h91l-72 -514h-82l9 68q-33 -30 -87 -55q-53 -24 -106 -24q-137 0 -137 135q0 19 3 42l48 347h91l-47 -338q-3 -20 -3 -36q0 -4 0.5 -9t1.5 -11q6 -56 72 -56q83 0 165 73zM168 667q0 32 21 50t53 18q24 0 40 -14q15 -14 15 -36q0 -31 -20 -49t-51 -18
q-25 0 -41 14q-15 13 -15 38zM374 664q0 32 21 50t53 18q24 0 40 -14q15 -14 15 -36q0 -31 -19 -49q-20 -18 -51 -18q-25 0 -41 14q-15 13 -15 38z" />
    <glyph glyph-name="yacute" unicode="&#xfd;" horiz-adv-x="479" 
d="M40 513h95l74 -414l192 414h95l-271 -546q-58 -114 -96 -152q-39 -39 -106 -39q-52 0 -89 18l16 66q36 -15 71 -15q36 0 62 32t65 119zM321 746h113l-165 -175l-64 12z" />
    <glyph glyph-name="thorn" unicode="&#xfe;" horiz-adv-x="585" 
d="M146 116q58 -52 129 -52q86 0 125 74q39 73 39 183q0 68 -22 97q-23 30 -69 30q-39 0 -87 -24q-47 -23 -79 -51zM146 755h89l-44 -308q98 76 186 76q157 0 157 -195q0 -170 -73 -255q-74 -86 -180 -86q-86 0 -148 55l-36 -255h-88z" />
    <glyph glyph-name="ydieresis" unicode="&#xff;" horiz-adv-x="479" 
d="M40 513h95l74 -414l192 414h95l-271 -546q-58 -114 -96 -152q-39 -39 -106 -39q-52 0 -89 18l16 66q36 -15 71 -15q36 0 62 32t65 119zM118 665q0 32 21 50t53 18q24 0 40 -14q15 -14 15 -36q0 -31 -20 -49t-51 -18q-25 0 -41 14q-15 13 -15 38zM324 662q0 32 21 50
t53 18q24 0 40 -14q15 -14 15 -36q0 -31 -19 -49q-20 -18 -51 -18q-25 0 -41 14q-15 13 -15 38z" />
    <glyph glyph-name="apostrophe" unicode="&#x2bc;" horiz-adv-x="499" 
d="M312 695h97l-92 -172l-66 10z" />
    <glyph glyph-name="tilde" unicode="&#x2dc;" horiz-adv-x="499" 
d="M281 715q34 0 75 -23t60 -23q38 0 45 52l55 -2q-12 -118 -101 -118q-33 0 -76 23t-62 23q-36 0 -43 -55l-56 3q6 60 34 89q28 30 69 30v1z" />
    <glyph glyph-name="endash" unicode="&#x2013;" horiz-adv-x="500" 
d="M-7 247l10 69h499l-10 -69h-499z" />
    <glyph glyph-name="emdash" unicode="&#x2014;" horiz-adv-x="1000" 
d="M-7 247l10 69h999l-10 -69h-999z" />
    <glyph glyph-name="quoteleft" unicode="&#x2018;" horiz-adv-x="203" 
d="M165 554h-98l114 225l68 -9z" />
    <glyph glyph-name="quoteright" unicode="&#x2019;" horiz-adv-x="203" 
d="M152 766h98l-114 -225l-68 9z" />
    <glyph glyph-name="quotedblleft" unicode="&#x201c;" horiz-adv-x="357" 
d="M320 554h-98l114 225l68 -9zM165 554h-98l114 225l68 -9z" />
    <glyph glyph-name="quotedblright" unicode="&#x201d;" horiz-adv-x="357" 
d="M307 766h98l-114 -225l-68 9zM152 766h98l-114 -225l-68 9z" />
    <glyph glyph-name="quotedblbase" unicode="&#x201e;" horiz-adv-x="357" 
d="M49 87h98l-114 -225l-68 9zM203 87h98l-114 -225l-68 9z" />
    <glyph glyph-name="bullet" unicode="&#x2022;" horiz-adv-x="392" 
d="M332 303q0 -76 -41 -117q-40 -40 -117 -40q-120 0 -120 110q0 76 41 117t116 41q121 0 121 -110v-1z" />
    <glyph glyph-name="ellipsis" unicode="&#x2026;" horiz-adv-x="641" 
d="M561 65q0 -77 -78 -77q-60 0 -60 54q0 77 79 77q59 0 59 -54zM355 65q0 -77 -78 -77q-60 0 -60 54q0 77 79 77q59 0 59 -54zM150 65q0 -77 -78 -77q-60 0 -60 54q0 77 79 77q59 0 59 -54z" />
    <glyph glyph-name="guilsinglleft" unicode="&#x2039;" horiz-adv-x="278" 
d="M117 103l-65 156l110 149h82l-105 -146l60 -159h-82z" />
    <glyph glyph-name="guilsinglright" unicode="&#x203a;" horiz-adv-x="277" 
d="M20 103l109 153l-64 152h81l66 -154l-109 -151h-83z" />
    <glyph glyph-name="Euro" unicode="&#x20ac;" horiz-adv-x="646" 
d="M124 465q36 122 117 197t206 75q36 0 66 -9q29 -9 57 -29q27 -20 44 -59q16 -38 16 -93v-15t-1 -12l-81 -7v11q0 77 -26 108q-26 30 -93 30q-66 0 -123 -54t-88 -145h214l-20 -67h-212q-4 -22 -6.5 -42t-4.5 -38h206l-18 -68h-189q4 -94 41 -141q36 -47 111 -47
q123 0 167 135l75 -17q-26 -98 -93 -144q-68 -47 -157 -47q-224 0 -234 262h-87l18 68h70q2 22 4 42t6 39h-63l19 67h59z" />
    <glyph glyph-name="trademark" unicode="&#x2122;" horiz-adv-x="832" 
d="M749 348v269l-107 -269h-46l-105 270v-270h-56v376h71l115 -297l118 297h65v-376h-55zM252 348h-60v323h-129v53h318v-53h-129v-323z" />
    </font>
</defs>
</svg>
