<?xml version="1.0" standalone="no"?>
<!DOCTYPE svg PUBLIC "-//W3C//DTD SVG 1.1//EN" "http://www.w3.org/Graphics/SVG/1.1/DTD/svg11.dtd" >
<svg xmlns="http://www.w3.org/2000/svg" xmlns:xlink="http://www.w3.org/1999/xlink" version="1.1">
<metadata>
Created by FontForge 20170731 at Wed Feb  6 03:45:35 2013
 By Aleksey,,,
Copyright (c) 2011 by TypeTogether. All rights reserved.
</metadata>
<defs>
<font id="AdelleSans-LightItalic" horiz-adv-x="729" >
  <font-face 
    font-family="Adelle Sans"
    font-weight="300"
    font-style="italic"
    font-stretch="normal"
    units-per-em="1000"
    panose-1="2 0 5 3 0 0 0 2 0 4"
    ascent="750"
    descent="-250"
    x-height="511"
    cap-height="724"
    bbox="-131 -223 1003 912"
    underline-thickness="50"
    underline-position="-150"
    slope="-8"
    unicode-range="U+000D-2122"
  />
<missing-glyph horiz-adv-x="500" 
d="M50 500h400v-500h-400v500zM400 50v400h-300v-400h300z" />
    <glyph glyph-name=".notdef" horiz-adv-x="500" 
d="M50 500h400v-500h-400v500zM400 50v400h-300v-400h300z" />
    <glyph glyph-name=".null" horiz-adv-x="0" 
 />
    <glyph glyph-name="nonmarkingreturn" unicode="&#xd;" horiz-adv-x="230" 
 />
    <glyph glyph-name="NULL" horiz-adv-x="0" 
 />
    <glyph glyph-name="NULL" horiz-adv-x="0" 
 />
    <glyph glyph-name="space" unicode=" " horiz-adv-x="230" 
 />
    <glyph glyph-name="exclam" unicode="!" horiz-adv-x="255" 
d="M82 183l59 541h77l-91 -541h-45zM145 55q0 -33 -17.5 -50t-49.5 -17q-51 0 -51 47q0 33 17.5 50t49.5 17q51 0 51 -47z" />
    <glyph glyph-name="quotedbl" unicode="&#x22;" horiz-adv-x="359" 
d="M227 465l36 259h72l-36 -259h-72zM69 465l36 259h72l-36 -259h-72z" />
    <glyph glyph-name="numbersign" unicode="#" horiz-adv-x="607" 
d="M273 0l43 146h-135l-43 -146h-59l42 146h-121l20 52h117l48 162h-121l20 53h117l37 130h60l-38 -130h133l37 130h60l-38 -130h121l-19 -53h-118l-46 -162h119l-18 -52h-116l-43 -146h-59zM377 360h-133l-48 -162h135z" />
    <glyph glyph-name="dollar" unicode="$" horiz-adv-x="521" 
d="M187 5q-90 7 -131 55.5t-44 132.5l61 10q2 -27 8 -52.5t19 -45.5t35.5 -33t58.5 -16l40 283q-29 10 -56.5 21.5t-49.5 30.5t-35 46.5t-13 69.5q0 45 15.5 80.5t43 61.5t65.5 41.5t82 18.5l12 83h56l-12 -84q34 -4 61.5 -16.5t46.5 -35t29 -56.5t9 -80l-60 -7
q-1 24 -4.5 47.5t-13 43.5t-28 33.5t-48.5 17.5l-38 -270q29 -10 57.5 -22t51 -30.5t36 -45.5t13.5 -67q0 -54 -17 -93t-46.5 -65t-67.5 -40t-80 -17l-12 -85h-56zM388 205q0 25 -8 43t-21.5 31.5t-32 23t-39.5 17.5l-37 -262q26 4 50.5 13.5t44 26.5t31.5 43.5t12 63.5z
M145 516q0 -24 7.5 -41.5t21 -30.5t31 -22.5t38.5 -17.5l35 250q-36 -5 -61.5 -18t-41 -31.5t-23 -41.5t-7.5 -47z" />
    <glyph glyph-name="percent" unicode="%" horiz-adv-x="795" 
d="M214 374q-38 0 -64.5 12t-43 32.5t-24.5 48t-8 59.5q0 43 12 81.5t36 67t59 45.5t81 17q72 0 105.5 -40t33.5 -112q0 -43 -11 -81t-34 -67t-58.5 -46t-83.5 -17zM218 426q44 0 67.5 19.5t34.5 45t13 51.5t2 40q0 45 -16.5 73.5t-60.5 28.5q-35 0 -57.5 -15t-36 -38.5
t-19 -52t-5.5 -56.5q0 -40 16.5 -68t61.5 -28zM98 -17l543 741h65l-542 -741h-66zM553 -12q-38 0 -64.5 12t-43 32.5t-24.5 48t-8 59.5q0 43 12 81.5t36 67t59 45.5t81 17q72 0 105.5 -40t33.5 -112q0 -43 -11 -81t-34 -67t-58.5 -46t-83.5 -17zM557 40q44 0 67.5 19.5
t34.5 45t13 51.5t2 40q0 45 -16.5 73.5t-60.5 28.5q-35 0 -57.5 -15t-36 -38.5t-19 -52t-5.5 -56.5q0 -40 16.5 -68t61.5 -28z" />
    <glyph glyph-name="ampersand" unicode="&#x26;" horiz-adv-x="680" 
d="M506 586q0 -47 -17.5 -80.5t-47.5 -58.5t-70.5 -44t-86.5 -36q12 -27 30 -60t39 -66.5t42.5 -64.5t39.5 -53q35 39 56.5 93.5t32.5 119.5h60q-11 -69 -37 -136t-74 -118q21 -20 41.5 -31t46.5 -11q24 0 51 12l9 -46q-15 -10 -34.5 -14t-35.5 -4q-42 0 -70.5 15t-55.5 40
q-37 -26 -83.5 -40.5t-104.5 -14.5q-43 0 -78.5 12.5t-60.5 35t-38.5 53.5t-13.5 69q0 81 42 135.5t119 94.5q-9 24 -15 49t-6 66q0 45 14.5 80.5t40 61t61 39t76.5 13.5q25 0 48 -6.5t41 -20t28.5 -34.5t10.5 -50zM225 340q-23 -12 -43.5 -28t-35.5 -36t-24 -46.5t-9 -59.5
q0 -26 7 -49t23.5 -40.5t43 -27.5t64.5 -10q35 0 68.5 11.5t66.5 31.5q-59 67 -97.5 133.5t-63.5 120.5zM253 510q0 -23 3.5 -49t11.5 -50q47 19 80 36t54 35t30.5 39.5t9.5 49.5q0 31 -17.5 52t-55.5 21q-49 0 -82.5 -34t-33.5 -100z" />
    <glyph glyph-name="quotesingle" unicode="'" horiz-adv-x="201" 
d="M69 465l36 259h72l-36 -259h-72z" />
    <glyph glyph-name="parenleft" unicode="(" horiz-adv-x="299" 
d="M140 -152q-34 69 -61 159t-27 196q0 82 20 156t51.5 139t70.5 122t78 104h69q-53 -69 -94 -132.5t-69 -126.5t-43 -128.5t-15 -137.5q0 -100 24.5 -186t62.5 -166z" />
    <glyph glyph-name="parenright" unicode=")" horiz-adv-x="299" 
d="M140 723q34 -69 61 -159t27 -196q0 -82 -20 -156t-51.5 -139t-70.5 -122t-78 -104h-69q52 69 93.5 132.5t69.5 126.5t43 128.5t15 137.5q0 100 -24.5 186t-62.5 166z" />
    <glyph glyph-name="asterisk" unicode="*" horiz-adv-x="468" 
d="M309 610l137 34l6 -30l-133 -62l65 -126l-28 -19l-92 100l-124 -102l-24 20l99 128l-118 60l15 30l131 -33l39 145h30z" />
    <glyph glyph-name="plus" unicode="+" horiz-adv-x="569" 
d="M216 131l22 157h-152l9 66h152l22 154h69l-22 -154h152l-9 -66h-152l-22 -157h-69z" />
    <glyph glyph-name="comma" unicode="," horiz-adv-x="217" 
d="M58 93h79l-110 -218l-52 8z" />
    <glyph glyph-name="hyphen" unicode="-" horiz-adv-x="320" 
d="M20 262l9 67h271l-9 -67h-271z" />
    <glyph glyph-name="period" unicode="." horiz-adv-x="215" 
d="M133 55q0 -33 -17.5 -50t-49.5 -17q-51 0 -51 47q0 33 17.5 50t49.5 17q51 0 51 -47z" />
    <glyph glyph-name="slash" unicode="/" horiz-adv-x="353" 
d="M-51 -92l400 847h64l-399 -847h-65z" />
    <glyph glyph-name="zero" unicode="0" horiz-adv-x="571" 
d="M240 -12q-57 0 -94 18t-58 49.5t-29.5 75.5t-8.5 95q0 36 2 74.5t7 77.5q8 67 27 131.5t52.5 115t84.5 81.5t123 31q53 0 88.5 -17.5t57 -48t30.5 -71.5t9 -87q0 -36 -1.5 -72.5t-5.5 -72.5q-8 -75 -26 -144t-51 -121.5t-84 -83.5t-123 -31zM243 42q55 0 93.5 29t64 76.5
t39.5 108.5t20 124q6 67 6 131q0 35 -6 65q-9 46 -37 75.5t-84 29.5q-53 0 -90.5 -27t-63 -71.5t-40 -100.5t-21.5 -114q-5 -35 -6.5 -69t-1.5 -66q0 -21 1 -40.5t4 -36.5q8 -52 35.5 -83t86.5 -31z" />
    <glyph glyph-name="one" unicode="1" horiz-adv-x="400" 
d="M156 0l88 622q-14 -8 -36.5 -14t-46 -10.5t-45 -6.5t-33.5 -2v51q72 6 121 25t88 59h31l-102 -724h-65z" />
    <glyph glyph-name="two" unicode="2" horiz-adv-x="526" 
d="M10 0l7 52l206 217q58 61 96 103.5t60 75.5t30.5 62t8.5 64q0 58 -28 83.5t-88 25.5q-59 0 -100.5 -32t-62.5 -104l-58 12q12 48 34.5 81.5t53 55t67 31.5t77.5 10q37 0 68 -9t54 -28t36 -48t13 -69q0 -46 -13.5 -84.5t-39 -77t-63.5 -79.5t-86 -92l-187 -194h326l-8 -56
h-403z" />
    <glyph glyph-name="three" unicode="3" horiz-adv-x="544" 
d="M322 737q84 0 127 -41t43 -107q0 -48 -17 -83.5t-42.5 -59.5t-55.5 -38t-57 -20l-1 -2q61 -10 97.5 -46.5t36.5 -110.5q0 -54 -18 -98.5t-50.5 -76t-78.5 -49t-102 -17.5q-176 0 -185 160l60 12q2 -19 7 -40t18 -38t37 -28.5t64 -11.5q34 0 66 10.5t57.5 32.5t41 56.5
t15.5 83.5q0 37 -11.5 62t-31.5 40.5t-47.5 22t-60.5 6.5h-60l8 55h46q44 0 80 12.5t61.5 35t39.5 53.5t14 68q0 21 -5 39.5t-17.5 32.5t-33.5 22t-52 8q-35 0 -60.5 -8t-44 -23t-31.5 -36t-24 -47l-58 14q29 83 88 119t137 36z" />
    <glyph glyph-name="four" unicode="4" horiz-adv-x="544" 
d="M323 0l26 186h-339l7 49l387 489h86l-68 -481h87l-8 -57h-88l-26 -186h-64zM358 243l58 411l-326 -411h268z" />
    <glyph glyph-name="five" unicode="5" horiz-adv-x="549" 
d="M214 668l-60 -260q30 22 67 36.5t82 14.5q32 0 63.5 -9.5t56 -31.5t40 -58.5t15.5 -90.5q0 -59 -18 -110.5t-52.5 -89.5t-85 -59.5t-114.5 -21.5q-78 0 -130 41t-58 121l59 15q2 -18 8.5 -39.5t21.5 -40t40 -30.5t65 -12q33 0 67.5 11.5t63 37.5t47 69.5t18.5 106.5
q0 69 -31.5 103t-90.5 34q-43 0 -83 -18t-73 -46l-44 22l79 361h332l-8 -56h-277z" />
    <glyph glyph-name="six" unicode="6" horiz-adv-x="571" 
d="M483 568q-7 65 -36 89.5t-72 24.5q-57 0 -98 -31.5t-69.5 -80.5t-45.5 -108t-24 -113q15 16 36.5 32t47.5 29t55 21.5t59 8.5q43 0 75 -13t53 -36.5t31 -55.5t10 -70q0 -62 -18.5 -113t-52 -87.5t-80.5 -56.5t-104 -20q-54 0 -89.5 19t-56.5 52.5t-30 79.5t-9 99
q0 40 5.5 92.5t19.5 108t37.5 109t59 95.5t85.5 68t116 26q63 0 106.5 -39t47.5 -117zM134 286q-3 -29 -3 -59q0 -34 5 -67.5t19.5 -59.5t39.5 -42.5t65 -16.5q36 0 68 13.5t56.5 40.5t39 68t14.5 96q0 124 -112 124q-27 0 -53.5 -8t-51 -21.5t-47 -31t-40.5 -36.5z" />
    <glyph glyph-name="seven" unicode="7" horiz-adv-x="505" 
d="M38 0l396 668h-376l8 56h448l-7 -50l-397 -674h-72z" />
    <glyph glyph-name="eight" unicode="8" horiz-adv-x="528" 
d="M333 372q26 -12 51 -25.5t45 -32.5t32 -45.5t12 -63.5q0 -48 -18.5 -87.5t-51.5 -68.5t-80 -45t-104 -16q-52 0 -89.5 13t-62 35.5t-36.5 52t-12 63.5q0 46 16 81t42 61.5t60.5 46t71.5 34.5q-22 10 -42.5 25t-36 35t-25 44t-9.5 52q0 50 19 88.5t51 64.5t75.5 39.5
t93.5 13.5q85 0 133 -37.5t48 -105.5q0 -38 -14.5 -71t-39 -60.5t-58 -50t-71.5 -40.5zM264 345q-44 -17 -77 -34.5t-56 -39.5t-34.5 -50.5t-11.5 -65.5q0 -24 8 -44.5t25.5 -36t44 -24.5t63.5 -9q48 0 82.5 14.5t56 37t31.5 50.5t10 54q0 33 -13.5 57t-34.5 41.5t-46 29
t-48 20.5zM277 398q35 16 66.5 36t55 44t37.5 51t14 58q0 45 -31 71.5t-95 26.5q-36 0 -66.5 -10t-52.5 -29t-34 -45t-12 -58q0 -27 10 -50t26.5 -41t38 -31.5t43.5 -22.5z" />
    <glyph glyph-name="nine" unicode="9" horiz-adv-x="567" 
d="M82 155q8 -59 40 -86.5t82 -27.5q58 0 100.5 27t72 72.5t46 104t22.5 121.5q-15 -16 -38.5 -32t-52 -29t-59.5 -21t-61 -8q-43 0 -73.5 14.5t-50.5 39.5t-29.5 58.5t-9.5 71.5q0 62 18 113t51.5 87.5t80 56.5t103.5 20q53 0 89 -20t58 -55t31.5 -82t9.5 -101
q0 -108 -19 -198.5t-57.5 -155.5t-97 -101t-136.5 -36q-73 0 -120 37t-57 115zM445 430q3 31 3 67q0 34 -5.5 67.5t-20 60t-39.5 43t-65 16.5q-36 0 -69 -13.5t-58.5 -40.5t-40.5 -68t-15 -95q0 -66 26.5 -100.5t82.5 -34.5q26 0 54 8t54.5 21.5t50.5 31.5t42 37z" />
    <glyph glyph-name="colon" unicode=":" horiz-adv-x="236" 
d="M143 55q0 -33 -17.5 -50t-49.5 -17q-51 0 -51 47q0 33 17.5 50t49.5 17q51 0 51 -47zM206 449q0 -33 -17.5 -50t-49.5 -17q-51 0 -51 47q0 33 17.5 50t49.5 17q51 0 51 -47z" />
    <glyph glyph-name="semicolon" unicode=";" horiz-adv-x="239" 
d="M58 93h79l-110 -218l-52 8zM219 449q0 -33 -17.5 -50t-49.5 -17q-51 0 -51 47q0 33 17.5 50t49.5 17q51 0 51 -47z" />
    <glyph glyph-name="less" unicode="&#x3c;" horiz-adv-x="570" 
d="M77 249l11 75l396 159l-9 -68l-328 -129l293 -123l-10 -65z" />
    <glyph glyph-name="equal" unicode="=" horiz-adv-x="570" 
d="M73 171l10 69h369l-10 -69h-369zM94 323l10 69h369l-10 -69h-369z" />
    <glyph glyph-name="greater" unicode="&#x3e;" horiz-adv-x="569" 
d="M468 253l-395 -149l9 67l327 123l-292 126l9 63l352 -159z" />
    <glyph glyph-name="question" unicode="?" horiz-adv-x="493" 
d="M296 724q37 0 70 -9.5t58.5 -30t40.5 -52.5t15 -77q0 -61 -20 -104t-54.5 -71.5t-81 -44.5t-99.5 -23l-18 -130h-63l25 177q47 4 91 13t77.5 29t54 55t20.5 91q0 33 -9.5 56t-26.5 37.5t-40 21.5t-50 7q-25 0 -49 -5t-45 -18.5t-38 -37t-28 -61.5l-58 12q8 31 24 61
t43 53t66.5 37t94.5 14zM214 55q0 -33 -17.5 -50t-49.5 -17q-51 0 -51 47q0 67 67 67q51 0 51 -47z" />
    <glyph glyph-name="at" unicode="@" horiz-adv-x="837" 
d="M618 -85q-52 -45 -123.5 -64t-146.5 -19q-69 0 -127.5 20t-101 58t-66.5 94t-24 128q0 99 33.5 179.5t93.5 137.5t142.5 88t179.5 31q66 0 123 -17.5t98.5 -52t65.5 -85t24 -115.5q0 -75 -17 -131.5t-46.5 -94t-69.5 -56t-85 -18.5q-41 0 -64.5 15.5t-31.5 40.5
q-23 -26 -59 -44t-78 -18q-32 0 -54 12t-36 32.5t-20 46.5t-6 55q0 56 15.5 103.5t43 82t65.5 54t84 19.5q29 0 52.5 -10t39.5 -26l9 30h55l-44 -250q-2 -14 -4 -26t-2 -23q0 -20 9.5 -32t37.5 -12q25 0 50 13.5t45 42t32.5 74t12.5 110.5q0 56 -18.5 98t-52.5 70t-82.5 42
t-107.5 14q-82 0 -149 -27t-115 -76.5t-74 -118t-26 -151.5q0 -62 18.5 -108.5t53 -78t82 -47.5t106.5 -16q67 0 128.5 19t100.5 51zM509 309q-14 14 -32.5 24t-47.5 10t-55 -12.5t-45.5 -37.5t-31 -62.5t-11.5 -88.5q0 -44 15 -70t53 -26q36 0 68.5 20.5t54.5 52.5z" />
    <glyph glyph-name="A" unicode="A" horiz-adv-x="625" 
d="M414 724l142 -724h-69l-44 236h-278l-107 -236h-67l334 724h89zM363 669l-172 -377h242z" />
    <glyph glyph-name="B" unicode="B" horiz-adv-x="604" 
d="M61 0l98 724h228q54 0 89.5 -11.5t57.5 -31.5t31 -47.5t9 -60.5q0 -45 -14 -79t-37.5 -57.5t-54 -38t-64.5 -21.5v-2q75 -11 110 -50.5t35 -102.5t-21 -105.5t-58.5 -68.5t-89.5 -37t-115 -11h-204zM268 56q45 0 84.5 6t68 23.5t45 49.5t16.5 85q0 41 -16.5 65.5t-45 37
t-66 16.5t-79.5 4h-105l-38 -287h136zM297 399q31 0 67.5 6.5t68 25t52 51t20.5 84.5q0 35 -12 55t-36 30.5t-60 13.5t-83 3h-100l-36 -269h119z" />
    <glyph glyph-name="C" unicode="C" horiz-adv-x="662" 
d="M605 195q-18 -58 -48 -97.5t-68.5 -64t-84 -35t-93.5 -10.5q-68 0 -117 21t-80.5 59t-46.5 91t-15 117q0 109 28 195t78 145t118.5 90t148.5 31q54 0 97.5 -16t73.5 -47.5t44.5 -77t11.5 -105.5l-62 -6q0 45 -8.5 80.5t-28 61t-52 39t-80.5 13.5q-66 0 -121 -26t-95 -76
t-62.5 -123t-22.5 -168q0 -127 53.5 -184.5t150.5 -57.5q87 0 139 39.5t83 124.5z" />
    <glyph glyph-name="D" unicode="D" horiz-adv-x="703" 
d="M61 0l98 724h201q79 0 136.5 -20.5t94.5 -58.5t54.5 -92t17.5 -120q0 -93 -24.5 -172.5t-76 -137.5t-130 -90.5t-186.5 -32.5h-185zM254 56q163 0 252 98.5t89 281.5q0 65 -17 109.5t-49 71.5t-78 39t-103 12h-132l-83 -612h121z" />
    <glyph glyph-name="E" unicode="E" horiz-adv-x="549" 
d="M61 0l98 724h392l-7 -56h-329l-36 -274h307l-8 -56h-307l-38 -282h338l-8 -56h-402z" />
    <glyph glyph-name="F" unicode="F" horiz-adv-x="523" 
d="M125 0h-64l98 724h392l-6 -56h-329l-39 -284h304l-6 -56h-305z" />
    <glyph glyph-name="G" unicode="G" horiz-adv-x="697" 
d="M582 0h-48l4 99q-12 -23 -35 -43t-53.5 -35t-67 -24t-74.5 -9q-67 0 -115 21.5t-79.5 60.5t-46.5 93.5t-15 121.5q0 108 28 192t78 142t119 88t151 30q54 0 97 -14t72 -43t43.5 -73.5t10.5 -105.5l-61 -7q4 102 -40 144t-128 42q-68 0 -123.5 -27t-95.5 -77.5
t-61.5 -123.5t-21.5 -165q0 -71 15.5 -118t43 -75t64.5 -39.5t80 -11.5q51 0 92 18t71 46.5t47.5 63.5t22.5 70l11 81h-209l8 53h267z" />
    <glyph glyph-name="H" unicode="H" horiz-adv-x="696" 
d="M555 0h-64l46 347h-367l-46 -347h-64l98 724h64l-44 -322h367l44 322h64z" />
    <glyph glyph-name="I" unicode="I" horiz-adv-x="265" 
d="M61 0l98 724h64l-98 -724h-64z" />
    <glyph glyph-name="J" unicode="J" horiz-adv-x="480" 
d="M382 724h64l-74 -557q-7 -51 -24.5 -85.5t-44 -55.5t-60 -29.5t-72.5 -8.5q-79 0 -118.5 40.5t-41.5 113.5l58 11q3 -25 9 -45t17 -34.5t30.5 -22.5t49.5 -8q24 0 46 5t39 19t29.5 39t17.5 65z" />
    <glyph glyph-name="K" unicode="K" horiz-adv-x="607" 
d="M173 357l375 367h80l-324 -316l246 -408h-77l-218 360l-93 -90l-37 -270h-64l98 724h64z" />
    <glyph glyph-name="L" unicode="L" horiz-adv-x="523" 
d="M61 0l98 724h64l-90 -668h319l-8 -56h-383z" />
    <glyph glyph-name="M" unicode="M" horiz-adv-x="853" 
d="M714 0h-62l88 652l-316 -652h-76l-138 652l-89 -652h-60l98 724h98l138 -657l316 657h101z" />
    <glyph glyph-name="N" unicode="N" horiz-adv-x="714" 
d="M493 0l-282 652l-89 -652h-61l98 724h92l273 -643l88 643h60l-98 -724h-81z" />
    <glyph glyph-name="O" unicode="O" 
d="M326 -12q-71 0 -122.5 22.5t-85.5 62.5t-50 95t-16 121q0 97 24.5 179t71.5 142t117 93.5t162 33.5q69 0 119.5 -22.5t83 -62t48 -93t15.5 -114.5q0 -107 -25.5 -191.5t-73 -143.5t-115.5 -90.5t-153 -31.5zM332 47q61 0 114.5 24.5t92.5 73t61.5 121t22.5 167.5
q0 57 -14 104q-20 69 -67.5 105.5t-123.5 36.5q-62 0 -116.5 -24.5t-94.5 -72.5t-63 -119.5t-23 -164.5q0 -59 14 -107q20 -70 68.5 -107t128.5 -37z" />
    <glyph glyph-name="P" unicode="P" horiz-adv-x="589" 
d="M124 0h-63l98 724h194q60 0 102 -14t69 -38t39.5 -56.5t12.5 -69.5q0 -70 -20.5 -121t-59 -84t-93.5 -49t-124 -16h-117zM284 333q47 0 88 9.5t71 32.5t47.5 63t17.5 102q0 37 -12.5 62t-37 39.5t-60 20.5t-81.5 6h-103l-45 -335h115z" />
    <glyph glyph-name="Q" unicode="Q" 
d="M324 -12q-71 0 -122.5 22.5t-85.5 62.5t-50 95t-16 121q0 97 24.5 179t71.5 142t117 93.5t162 33.5q69 0 119.5 -22.5t83 -62t48 -93t15.5 -114.5q0 -168 -60 -278.5t-169 -153.5q37 -48 85.5 -78t112.5 -41l-15 -54q-35 3 -72 18.5t-70 37.5t-60 48t-42 52
q-38 -8 -77 -8zM330 47q61 0 114.5 24.5t92.5 73t61.5 121t22.5 167.5q0 57 -14 104q-20 69 -67.5 105.5t-123.5 36.5q-62 0 -116.5 -24.5t-94.5 -72.5t-63 -119.5t-23 -164.5q0 -59 14 -107q20 -70 68.5 -107t128.5 -37z" />
    <glyph glyph-name="R" unicode="R" horiz-adv-x="602" 
d="M544 0h-70l-125 314h-183l-42 -314h-63l98 724h210q62 0 103 -14t65.5 -37.5t34.5 -54.5t10 -65q0 -88 -43 -141.5t-127 -82.5zM302 370q46 0 85.5 9.5t67.5 31t44 57t16 87.5q0 34 -12 56t-33.5 34.5t-51.5 17.5t-67 5h-137l-40 -298h128z" />
    <glyph glyph-name="S" unicode="S" horiz-adv-x="555" 
d="M476 525q0 28 -5 55.5t-20 49.5t-42 36t-72 14q-47 0 -81 -12t-56 -32.5t-32 -47.5t-10 -57q0 -33 14.5 -55.5t38.5 -37.5t55 -26t63 -22t62.5 -24t54.5 -33.5t38.5 -49.5t14.5 -71q0 -59 -21.5 -101.5t-58 -69.5t-83.5 -40t-98 -13q-58 0 -99.5 14t-68.5 40.5t-41 63.5
t-17 83l62 10q3 -30 11.5 -58t26.5 -49.5t48.5 -34t78.5 -12.5q33 0 67 7.5t61.5 25.5t45 48.5t17.5 76.5q0 32 -11.5 53.5t-31 36.5t-45 25.5t-53.5 19.5q-35 11 -70.5 23.5t-64 32.5t-46.5 51.5t-18 81.5q0 49 19 88t52.5 66t78.5 41.5t97 14.5q45 0 82.5 -11.5t64.5 -36
t41.5 -63.5t13.5 -93z" />
    <glyph glyph-name="T" unicode="T" horiz-adv-x="516" 
d="M186 0l90 668h-212l7 56h488l-8 -56h-211l-90 -668h-64z" />
    <glyph glyph-name="U" unicode="U" horiz-adv-x="690" 
d="M584 235q-33 -247 -278 -247q-130 0 -182 64t-35 184l66 488h64l-65 -484q-14 -107 27 -150.5t127 -43.5q44 0 80 9.5t63 32t45 59.5t25 91l65 486h64z" />
    <glyph glyph-name="V" unicode="V" horiz-adv-x="580" 
d="M207 0l-140 724h68l124 -665l291 665h68l-322 -724h-89z" />
    <glyph glyph-name="W" unicode="W" horiz-adv-x="848" 
d="M545 0l-76 640l-252 -640h-76l-56 724h66l40 -644l252 644h76l77 -654l211 654h63l-243 -724h-82z" />
    <glyph glyph-name="X" unicode="X" horiz-adv-x="589" 
d="M458 0l-165 321l-241 -321h-73l279 374l-169 350h72l145 -306l229 306h71l-266 -355l190 -369h-72z" />
    <glyph glyph-name="Y" unicode="Y" horiz-adv-x="520" 
d="M255 0h-64l39 284l-177 440h68l148 -376l244 376h68l-286 -437z" />
    <glyph glyph-name="Z" unicode="Z" horiz-adv-x="551" 
d="M-2 0l6 46l470 622h-375l8 56h456l-7 -48l-468 -620h401l-8 -56h-483z" />
    <glyph glyph-name="bracketleft" unicode="[" horiz-adv-x="253" 
d="M8 -143l121 867h145l-7 -54h-83l-107 -758h83l-7 -55h-145z" />
    <glyph glyph-name="backslash" unicode="\" horiz-adv-x="352" 
d="M233 -92l-161 847h60l162 -847h-61z" />
    <glyph glyph-name="bracketright" unicode="]" horiz-adv-x="253" 
d="M235 724l-121 -867h-145l7 54h83l107 758h-83l7 55h145z" />
    <glyph glyph-name="asciicircum" unicode="^" horiz-adv-x="526" 
d="M428 299l-168 303l-165 -303h-65l197 365h69l200 -365h-68z" />
    <glyph glyph-name="underscore" unicode="_" horiz-adv-x="500" 
d="M0 -181v52h500v-52h-500z" />
    <glyph glyph-name="grave" unicode="`" horiz-adv-x="499" 
d="M345 572l-117 177h86l83 -164z" />
    <glyph glyph-name="a" unicode="a" horiz-adv-x="574" 
d="M454 86q-3 -21 1 -32.5t23 -11.5q7 0 14.5 1t18.5 4l-6 -45q-10 -4 -21.5 -5.5t-23.5 -1.5q-32 0 -50.5 16.5t-15.5 58.5q-34 -37 -83.5 -59.5t-100.5 -22.5q-35 0 -65 11t-51.5 35t-33.5 61t-12 90q0 56 13 115.5t42 108.5t77 80.5t118 31.5q44 0 83 -17.5t64 -38.5
l8 46h61zM434 406q-11 10 -26 20t-33.5 18.5t-39.5 13.5t-43 5q-51 0 -85.5 -27t-55 -68t-29.5 -89t-9 -89t7.5 -69t22 -45t34.5 -24.5t44 -7.5q41 0 81 18t94 69z" />
    <glyph glyph-name="b" unicode="b" horiz-adv-x="582" 
d="M50 0l106 755h66l-45 -315q20 15 41.5 29.5t45.5 26t50 18.5t56 7q34 0 63 -10.5t49 -33.5t31.5 -60t11.5 -89q0 -89 -21 -153.5t-55.5 -106t-79 -61t-90.5 -19.5t-85 15t-73 41l-9 -44h-62zM132 106q8 -7 21.5 -17t31.5 -19.5t40.5 -16t49.5 -6.5q51 0 86 24.5t56.5 64
t30.5 89.5t9 101q0 75 -24.5 106t-72.5 31q-25 0 -52.5 -9t-53.5 -22.5t-48 -28.5t-36 -28z" />
    <glyph glyph-name="c" unicode="c" horiz-adv-x="531" 
d="M246 -12q-53 0 -90.5 15.5t-61.5 44t-35 67.5t-11 87q0 77 21 136.5t57.5 100t86.5 61.5t109 21q43 0 76.5 -15t55 -41t30.5 -62t4 -78l-64 -5q1 33 -3 59.5t-16.5 45t-35 28.5t-57.5 10q-33 0 -67.5 -12.5t-63 -42t-46.5 -79t-18 -123.5q0 -45 11 -76t29 -50t42 -27.5
t51 -8.5q56 0 95 27t58 88l61 -13q-11 -41 -32.5 -71t-50.5 -49.5t-63.5 -28.5t-71.5 -9z" />
    <glyph glyph-name="d" unicode="d" horiz-adv-x="571" 
d="M389 0l6 61q-38 -29 -83.5 -51t-95.5 -22q-74 0 -119.5 46t-45.5 147q0 93 22 157.5t57.5 105t81 59t92.5 18.5q45 0 80.5 -16t61.5 -37l40 287h67l-106 -755h-58zM437 413q-8 7 -21 16t-29.5 17.5t-37 14t-44.5 5.5q-51 0 -87 -23.5t-58.5 -63t-33 -90.5t-10.5 -106
q0 -69 24.5 -104t81.5 -35q17 0 33.5 3.5t33.5 8.5q32 11 60.5 29.5t48.5 37.5z" />
    <glyph glyph-name="e" unicode="e" horiz-adv-x="512" 
d="M242 -12q-54 0 -91 17.5t-59.5 48t-32.5 71.5t-10 87q0 58 16.5 113.5t50 99t83.5 70t117 26.5q39 0 68.5 -10t49.5 -27.5t30 -41t10 -50.5q0 -33 -11.5 -59t-31 -45t-45.5 -32.5t-55 -22.5t-60 -14t-59.5 -8t-54 -4t-43.5 -2q0 -31 5 -60t20 -51.5t42 -36t72 -13.5
q60 0 95.5 31t48.5 73l57 -12q-11 -39 -32.5 -67t-49.5 -46t-61.5 -26.5t-68.5 -8.5zM313 466q-46 0 -80.5 -17.5t-58.5 -46.5t-38 -66.5t-19 -76.5q9 0 31 1t50.5 3.5t61 8t62.5 15.5q39 13 63.5 37.5t24.5 65.5q0 38 -26 57t-71 19z" />
    <glyph glyph-name="f" unicode="f" horiz-adv-x="303" 
d="M383 694q-14 5 -34 9t-38 4q-35 0 -60 -19.5t-33 -73.5l-14 -103h145l-8 -53h-145l-94 -670h-67l94 670h-78l8 53h78l13 93q23 160 160 160q28 0 49.5 -5t33.5 -11z" />
    <glyph glyph-name="g" unicode="g" horiz-adv-x="554" 
d="M285 463q-51 0 -85.5 -26t-55 -65t-29.5 -85.5t-9 -87.5t7.5 -68t21.5 -43.5t33.5 -23.5t42.5 -7q43 0 86 16.5t94 67.5l36 266q-21 22 -59.5 39t-82.5 17zM386 76q-35 -36 -85 -55.5t-101 -19.5q-35 0 -64.5 11t-50.5 34.5t-32.5 60.5t-11.5 90q0 54 13 111t42 104.5
t77 78t118 30.5q44 0 83 -17.5t64 -38.5l8 46h61l-78 -557q-11 -81 -67.5 -129t-156.5 -48q-85 0 -136.5 35t-59.5 120l62 12q2 -23 9 -43t22 -35t39.5 -24t60.5 -9q30 0 57 7t49.5 22t37.5 39t21 59z" />
    <glyph glyph-name="h" unicode="h" horiz-adv-x="581" 
d="M117 0h-67l106 755h67l-47 -318q15 13 36.5 27.5t47 27t54.5 21t59 8.5q77 0 112 -43.5t23 -132.5l-48 -345h-67l48 341q9 64 -11 93.5t-66 29.5q-28 0 -53.5 -7.5t-49.5 -20t-46.5 -28.5t-44.5 -33z" />
    <glyph glyph-name="i" unicode="i" horiz-adv-x="239" 
d="M114 0h-67l72 511h67zM232 687q0 -29 -16.5 -45.5t-45.5 -16.5q-47 0 -47 44q0 29 16.5 45.5t45.5 16.5q47 0 47 -44z" />
    <glyph glyph-name="j" unicode="j" horiz-adv-x="239" 
d="M119 511h67l-84 -593q-11 -75 -44.5 -108t-99.5 -33q-9 0 -22 1.5t-25.5 4t-24 5.5t-17.5 7l16 53q16 -6 35 -10t36 -4q32 0 52 18t27 65zM231 687q0 -29 -16.5 -45.5t-45.5 -16.5q-47 0 -47 44q0 29 16.5 45.5t45.5 16.5q47 0 47 -44z" />
    <glyph glyph-name="k" unicode="k" horiz-adv-x="507" 
d="M375 0l-129 278l-103 -92l-26 -186h-67l106 755h67l-68 -485l268 241h84l-206 -185l147 -326h-73z" />
    <glyph glyph-name="l" unicode="l" horiz-adv-x="239" 
d="M153 755h67l-106 -755h-67z" />
    <glyph glyph-name="m" unicode="m" horiz-adv-x="870" 
d="M366 521q59 0 85.5 -22.5t33.5 -61.5q43 34 91 59t102 25q44 0 70 -13t38.5 -36.5t13.5 -56t-4 -70.5l-48 -345h-67l48 338q3 20 4.5 36.5t-0.5 30.5q-2 28 -17.5 43t-52.5 15q-24 0 -48.5 -8.5t-48 -21t-43.5 -27t-34 -25.5l-52 -381h-67l48 338q3 20 4.5 36.5
t-0.5 30.5q-2 28 -17.5 43t-52.5 15q-25 0 -51.5 -9.5t-51.5 -23.5t-45.5 -29t-33.5 -25l-53 -376h-67l72 511h62l-11 -76q43 34 91 60t102 26z" />
    <glyph glyph-name="n" unicode="n" horiz-adv-x="581" 
d="M117 0h-67l72 511h64l-11 -72q15 13 37 27.5t47.5 26.5t54.5 20t59 8q76 0 111.5 -43.5t23.5 -132.5l-48 -345h-67l48 341q18 123 -77 123q-28 0 -56 -9t-53.5 -22t-47 -28.5t-37.5 -27.5z" />
    <glyph glyph-name="o" unicode="o" horiz-adv-x="573" 
d="M246 -12q-52 0 -89.5 15t-61.5 42t-35.5 65t-11.5 84q0 17 1 33.5t3 33.5q7 57 28 105t55 82.5t81 53.5t107 19q53 0 89.5 -16t59.5 -43.5t33.5 -65.5t10.5 -82q0 -17 -1 -33.5t-3 -32.5q-14 -123 -82.5 -191.5t-183.5 -68.5zM253 43q78 0 129.5 54t62.5 160q3 27 3 58
q0 147 -133 147q-81 0 -133 -52t-64 -154q-3 -26 -3 -56q0 -76 34 -116.5t104 -40.5z" />
    <glyph glyph-name="p" unicode="p" horiz-adv-x="582" 
d="M174 438q19 15 41 29.5t46.5 26.5t51.5 19.5t57 7.5q34 0 63 -10.5t49 -33.5t31.5 -60t11.5 -89q0 -89 -21 -153.5t-56 -106t-80.5 -61t-93.5 -19.5t-87.5 17.5t-65.5 38.5l-36 -256h-65l102 723h64zM457 326q0 75 -23.5 106t-72.5 31q-26 0 -53.5 -9t-53.5 -22t-48 -28
t-36 -28l-38 -271q8 -7 22 -17t32 -19.5t39.5 -16t45.5 -6.5q54 0 89.5 24.5t57 64.5t30.5 90t9 101z" />
    <glyph glyph-name="q" unicode="q" horiz-adv-x="568" 
d="M304 521q45 0 81 -16t62 -37l7 43h64l-101 -723h-63l39 271q-38 -29 -83 -50t-95 -21q-75 0 -119.5 45.5t-44.5 142.5q0 95 22 160.5t57.5 106.5t81 59.5t92.5 18.5zM116 187q0 -70 24 -106t81 -36q25 0 50.5 7t48.5 18t43 25.5t35 28.5l40 292q-8 7 -21 16t-30 16.5
t-37.5 12.5t-44.5 5q-51 0 -87 -23t-58.5 -61.5t-33 -89t-10.5 -105.5z" />
    <glyph glyph-name="r" unicode="r" horiz-adv-x="352" 
d="M117 0h-67l72 511h63l-12 -87q43 46 80 71t87 25h11t11 -1l-10 -69q-50 5 -93 -17t-90 -65z" />
    <glyph glyph-name="s" unicode="s" horiz-adv-x="480" 
d="M267 521q46 0 78 -12.5t52.5 -34.5t30 -51t9.5 -62l-57 -6q-1 24 -7 44.5t-19 35.5t-34.5 24t-52.5 9q-35 0 -58 -7.5t-36.5 -20t-19.5 -28.5t-6 -32q0 -33 19.5 -51t48.5 -29.5t62.5 -20t62.5 -24t48.5 -41t19.5 -70.5q0 -74 -51.5 -115t-141.5 -41q-85 0 -131 38
t-53 119l56 11q3 -24 10.5 -45t22.5 -36.5t38.5 -24.5t59.5 -9q21 0 43.5 4.5t41 15t30.5 29t12 46.5q0 34 -19.5 52.5t-48 29.5t-62.5 19.5t-62.5 23t-48 40t-19.5 71.5q0 39 15.5 67t41 46.5t58 27t67.5 8.5z" />
    <glyph glyph-name="t" unicode="t" horiz-adv-x="369" 
d="M320 18q-21 -13 -53 -21.5t-63 -8.5q-69 0 -100.5 32.5t-20.5 104.5l47 333h-80l7 53h80l21 147l68 10l-22 -157h143l-7 -53h-143l-46 -324q-3 -22 -3 -39t6.5 -29t20.5 -18.5t39 -6.5q26 0 52 8.5t44 18.5z" />
    <glyph glyph-name="u" unicode="u" horiz-adv-x="581" 
d="M458 511h67l-72 -511h-61l9 69q-15 -13 -37 -27t-48 -25.5t-55 -19t-59 -7.5q-77 0 -110.5 43.5t-21.5 132.5l48 345h67l-48 -341q-3 -21 -3.5 -38.5t2.5 -31.5q10 -54 79 -54q26 0 52 7t51 19t47 27t40 30z" />
    <glyph glyph-name="v" unicode="v" horiz-adv-x="485" 
d="M164 0l-119 511h71l94 -445l218 445h69l-258 -511h-75z" />
    <glyph glyph-name="w" unicode="w" horiz-adv-x="730" 
d="M127 0l-82 511h66l64 -443l181 443h77l56 -441l186 441h67l-223 -511h-81l-54 436l-177 -436h-80z" />
    <glyph glyph-name="x" unicode="x" horiz-adv-x="455" 
d="M325 0l-112 217l-161 -217h-72l201 269l-130 242h69l106 -201l156 201h73l-197 -248l138 -263h-71z" />
    <glyph glyph-name="y" unicode="y" horiz-adv-x="461" 
d="M47 511h68l82 -432l206 432h70l-270 -541q-28 -55 -49.5 -92t-42.5 -59.5t-44.5 -32t-55.5 -9.5q-28 0 -47.5 5t-33.5 11l13 51q11 -5 29 -10t40 -5q19 0 35 8.5t31.5 28t33 52t38.5 80.5z" />
    <glyph glyph-name="z" unicode="z" horiz-adv-x="451" 
d="M-3 0l7 45l350 413h-290l8 53h371l-7 -45l-349 -412h304l-8 -54h-386z" />
    <glyph glyph-name="braceleft" unicode="{" horiz-adv-x="293" 
d="M25 316q29 0 52 13t34 44q5 13 8 35.5t5 49.5t3.5 56.5t3.5 56.5q4 41 11.5 72t24 52t44 31.5t70.5 10.5h46l-8 -56h-45q-35 0 -51.5 -14t-20.5 -43q-5 -32 -7 -72.5t-5 -82.5q-5 -51 -12.5 -83t-19 -51t-27 -29t-34.5 -17q10 -5 20.5 -11.5t18 -17t12.5 -26t5 -38.5
q0 -28 -6.5 -60.5t-15 -64.5t-15 -61t-6.5 -49q0 -26 15.5 -39.5t52.5 -13.5h32l-7 -53h-45q-63 0 -89.5 25t-26.5 67q0 6 0.5 12.5t1.5 14.5q3 25 10.5 54t14.5 58t12.5 56t5.5 48q0 41 -19 56t-49 15h-17l8 55h15z" />
    <glyph glyph-name="bar" unicode="|" horiz-adv-x="280" 
d="M50 -143l126 898h60l-126 -898h-60z" />
    <glyph glyph-name="braceright" unicode="}" horiz-adv-x="293" 
d="M255 276q-29 0 -52 -13t-34 -44q-5 -14 -8 -36.5t-5 -49.5t-3.5 -56t-3.5 -56q-4 -41 -12 -72t-24.5 -52t-43.5 -31.5t-70 -10.5h-46l8 56h45q35 0 51.5 14t20.5 43q5 32 7 72.5t5 82.5q4 51 12 83t19.5 51t26.5 28.5t35 17.5q-11 4 -21 11t-17.5 17.5t-12.5 26t-5 38.5
q0 28 6.5 60.5t15 64.5t15 61t6.5 49q0 26 -15.5 39.5t-52.5 13.5h-32l7 53h45q63 0 89.5 -25t26.5 -67q0 -6 -0.5 -12.5t-1.5 -14.5q-3 -25 -10.5 -54t-14.5 -58t-12.5 -56t-5.5 -48q0 -41 19 -56t49 -15h17l-8 -55h-15z" />
    <glyph glyph-name="asciitilde" unicode="~" horiz-adv-x="484" 
d="M135 406q23 0 56 -7.5t66.5 -16t63 -16t46.5 -7.5q20 0 30.5 9.5t10.5 45.5l47 -2q4 -31 -2 -52t-18 -34.5t-28 -19.5t-34 -6q-23 0 -55.5 7.5t-66.5 16t-64.5 16t-48.5 7.5q-16 0 -27.5 -11.5t-9.5 -45.5l-46 2q-4 31 2 52.5t18 35t27.5 20t32.5 6.5z" />
    <glyph glyph-name="uni00A0" unicode="&#xa0;" horiz-adv-x="230" 
 />
    <glyph glyph-name="exclamdown" unicode="&#xa1;" horiz-adv-x="256" 
d="M178 326l-59 -541h-77l91 541h45zM115 454q0 33 17.5 50t49.5 17q51 0 51 -47q0 -33 -17.5 -50t-49.5 -17q-51 0 -51 47z" />
    <glyph glyph-name="cent" unicode="&#xa2;" horiz-adv-x="507" 
d="M210 108q-83 8 -119.5 63t-36.5 139q0 64 17 115.5t47 88t71 58t90 26.5l14 97h55l-14 -97q70 -8 105 -57.5t27 -121.5l-60 -4q1 24 -2.5 45t-12.5 38t-24.5 28.5t-40.5 15.5l-53 -379q41 6 69.5 30.5t43.5 72.5l57 -12q-19 -69 -67.5 -104.5t-110.5 -41.5l-15 -108h-55z
M120 310q0 -37 7.5 -63t21 -43.5t31 -27.5t38.5 -13l53 378q-28 -5 -55 -19t-48.5 -41.5t-34.5 -69t-13 -101.5z" />
    <glyph glyph-name="sterling" unicode="&#xa3;" horiz-adv-x="548" 
d="M40 60q58 47 86 92.5t28 96.5q0 39 -14 78h-107l8 56h82q-4 10 -9 25t-9 33t-7 37.5t-3 39.5q0 50 19 90.5t51.5 69t76.5 44t95 15.5q94 0 141 -44t44 -142l-62 -6q0 33 -5.5 58.5t-19.5 43t-37.5 26.5t-60.5 9q-36 0 -67.5 -9.5t-55.5 -29.5t-37.5 -51.5t-13.5 -75.5
q0 -39 9.5 -74t17.5 -59h238l-8 -56h-214q5 -17 7.5 -37t2.5 -37q0 -107 -101 -193h195q28 0 48.5 6.5t35.5 20t26.5 35t20.5 51.5l60 -13q-23 -86 -72.5 -123t-127.5 -37h-322l8 60h53z" />
    <glyph glyph-name="currency" unicode="&#xa4;" horiz-adv-x="570" 
d="M473 9l-93 91q-26 -20 -60 -30.5t-76 -10.5q-45 0 -79.5 11.5t-60.5 31.5l-92 -93l-46 47l95 95q-17 28 -25 61.5t-8 69.5q0 67 35 123l-94 93l50 49l90 -90q27 22 62.5 34.5t79.5 12.5t79.5 -11.5t61.5 -32.5l86 86l46 -47l-89 -90q32 -53 32 -123q0 -37 -9.5 -71.5
t-29.5 -63.5l95 -94zM249 119q35 0 61.5 12.5t44.5 34.5t27 52t9 64q0 75 -36 117.5t-109 42.5q-71 0 -106.5 -45t-35.5 -115q0 -34 8.5 -64t26 -52t45 -34.5t65.5 -12.5z" />
    <glyph glyph-name="yen" unicode="&#xa5;" horiz-adv-x="512" 
d="M76 300h135l10 71h-135l8 53h102l-126 300h69l123 -301l195 301h73l-204 -300h105l-8 -53h-135l-10 -71h135l-7 -53h-135l-35 -247h-67l35 247h-135z" />
    <glyph glyph-name="brokenbar" unicode="&#xa6;" horiz-adv-x="280" 
d="M50 -143l55 388h60l-55 -388h-60zM128 410l48 345h60l-48 -345h-60z" />
    <glyph glyph-name="section" unicode="&#xa7;" horiz-adv-x="550" 
d="M339 654q-38 0 -66.5 -10.5t-47 -28t-28 -41t-9.5 -49.5q0 -40 23 -62t57 -36t74 -24t74 -26t57 -42.5t23 -72.5q0 -55 -32.5 -96t-90.5 -81q20 -17 35.5 -43.5t15.5 -58.5q0 -49 -16.5 -86t-45 -61.5t-67.5 -37t-85 -12.5q-101 0 -149.5 49t-45.5 130l68 9
q0 -29 5.5 -53t20.5 -41.5t39.5 -27.5t61.5 -10q69 0 107.5 37t38.5 93q0 39 -23 61t-58 35.5t-75 23.5t-75 27t-58 45.5t-23 78.5q0 48 30 85.5t93 81.5q-24 19 -37.5 45.5t-13.5 64.5q0 47 19 82.5t50.5 59t71.5 35.5t83 12q98 0 144 -48t40 -131l-68 -9q3 66 -23.5 99.5
t-93.5 33.5zM112 247q0 -33 20.5 -52t51.5 -31t68.5 -21.5t72.5 -23.5q45 26 73.5 58t28.5 77q0 31 -20.5 48.5t-52 29.5t-69 21.5t-71.5 23.5q-20 -13 -38.5 -27.5t-32.5 -31t-22.5 -34.5t-8.5 -37z" />
    <glyph glyph-name="dieresis" unicode="&#xa8;" horiz-adv-x="499" 
d="M187 660q0 27 17 43t44 16q21 0 33 -12t12 -32q0 -27 -16.5 -42.5t-42.5 -15.5q-22 0 -34.5 11.5t-12.5 31.5zM386 660q0 27 17 43t44 16q21 0 33 -12t12 -32q0 -27 -16.5 -42.5t-42.5 -15.5q-22 0 -34.5 11.5t-12.5 31.5z" />
    <glyph glyph-name="copyright" unicode="&#xa9;" horiz-adv-x="759" 
d="M706 319q0 -74 -24 -135t-68 -104.5t-105 -67.5t-134 -24q-82 0 -144 24.5t-103 67t-62 100.5t-21 125q0 78 26 139t71 103.5t105.5 65t129.5 22.5q76 0 137 -22.5t104 -63.5t65.5 -99.5t22.5 -130.5zM377 31q65 0 117 19.5t88 56t55.5 89t19.5 117.5q0 68 -21 120
t-58 87.5t-88.5 53.5t-112.5 18q-60 0 -111.5 -19t-89 -56t-59 -90t-21.5 -121q0 -64 19.5 -115t55.5 -86.5t88 -54.5t118 -19zM531 247q-5 -39 -21 -63.5t-37.5 -39t-46 -19.5t-46.5 -5q-48 0 -82.5 14.5t-56.5 41t-32 62t-10 77.5t12 78t35 61.5t57 40t78 14.5
q29 0 54.5 -6.5t45 -21.5t31.5 -39t14 -59l-53 -8q-4 45 -25.5 66.5t-67.5 21.5q-24 0 -46 -8t-38.5 -26t-26 -46.5t-9.5 -69.5q0 -31 7 -57.5t21.5 -46.5t36.5 -31.5t52 -11.5q52 0 73.5 22t31.5 67z" />
    <glyph glyph-name="ordfeminine" unicode="&#xaa;" horiz-adv-x="396" 
d="M336 344q-2 -14 1 -21t15 -7q10 0 22 4l-5 -36q-7 -3 -17 -4.5t-20 -1.5q-23 0 -36.5 11t-12.5 34q-22 -23 -53 -36t-65 -13q-48 0 -78.5 29.5t-30.5 97.5q0 40 9.5 79t30 69.5t51.5 49t75 18.5q29 0 53.5 -11t41.5 -25l5 30h53zM308 538q-13 12 -35.5 22t-48.5 10
q-32 0 -53 -16t-33.5 -40.5t-18 -53t-5.5 -53.5q0 -48 18 -67.5t49 -19.5q24 0 49.5 11.5t52.5 39.5z" />
    <glyph glyph-name="guillemotleft" unicode="&#xab;" horiz-adv-x="428" 
d="M128 103l-66 157l110 148h66l-104 -146l60 -159h-66zM278 103l-66 157l110 148h66l-104 -146l60 -159h-66z" />
    <glyph glyph-name="logicalnot" unicode="&#xac;" horiz-adv-x="570" 
d="M402 199v94h-304v66h373v-160h-69z" />
    <glyph glyph-name="uni00AD" unicode="&#xad;" horiz-adv-x="311" 
d="M3 262l9 67h271l-9 -67h-271z" />
    <glyph glyph-name="registered" unicode="&#xae;" horiz-adv-x="446" 
d="M424 480q0 -41 -13.5 -74.5t-37.5 -57.5t-58 -37.5t-75 -13.5q-45 0 -79.5 13.5t-57.5 37t-34.5 55.5t-11.5 70q0 43 14.5 77t39.5 58t58.5 36.5t71.5 12.5q85 0 134 -48t49 -129zM385 477q0 70 -41 107t-103 37q-30 0 -56.5 -10t-46 -28.5t-30.5 -46t-11 -62.5
q0 -66 38.5 -103.5t105.5 -37.5t105.5 38.5t38.5 105.5zM328 384h-38l-45 76h-28v-76h-36v191h66q39 0 51.5 -16.5t12.5 -37.5q0 -20 -9 -31.5t-25 -18.5zM230 488q19 0 31.5 6t12.5 26q0 17 -10 22t-27 5h-20v-59h13z" />
    <glyph glyph-name="macron" unicode="&#xaf;" horiz-adv-x="500" 
d="M203 693h283l-8 -57h-283z" />
    <glyph glyph-name="degree" unicode="&#xb0;" horiz-adv-x="300" 
d="M174 577q28 0 42 17t14 46q0 61 -56 61q-26 0 -42 -16t-16 -49q0 -28 14.5 -43.5t43.5 -15.5zM283 640q0 -52 -29 -81t-80 -29t-81 28t-30 78q0 55 32 83.5t79 28.5q48 0 78.5 -27t30.5 -81z" />
    <glyph glyph-name="plusminus" unicode="&#xb1;" horiz-adv-x="569" 
d="M51 0l9 66h373l-9 -66h-373zM221 131l22 157h-152l10 66h152l21 154h69l-21 -154h152l-10 -66h-152l-22 -157h-69z" />
    <glyph glyph-name="twosuperior" unicode="&#xb2;" horiz-adv-x="351" 
d="M38 349l7 50l124 124q34 34 57 58.5t37 43.5t19.5 35.5t5.5 34.5q0 29 -15.5 42t-47.5 13q-33 0 -55 -18t-35 -57l-54 10q7 30 22 52t35 35.5t45 20t52 6.5q53 0 84 -24.5t31 -73.5q0 -26 -7 -47.5t-22 -43t-37 -45t-52 -52.5l-116 -112h198l-8 -52h-268z" />
    <glyph glyph-name="threesuperior" unicode="&#xb3;" horiz-adv-x="373" 
d="M246 799q56 0 86 -25t30 -68q0 -27 -10 -47.5t-25.5 -35.5t-34.5 -24t-36 -13v-2q38 -7 60.5 -29t22.5 -65q0 -68 -43.5 -108t-118.5 -40q-56 0 -90 24.5t-37 78.5l55 10q1 -12 4.5 -23.5t11.5 -21t22 -15.5t37 -6q18 0 35 5.5t30.5 17.5t22 30.5t8.5 44.5q0 40 -23.5 55
t-61.5 15h-40l7 47h29q51 0 81.5 25.5t30.5 67.5q0 22 -13 38t-47 16q-38 0 -57.5 -17t-31.5 -47l-54 11q19 55 58 78t92 23z" />
    <glyph glyph-name="acute" unicode="&#xb4;" horiz-adv-x="500" 
d="M385 749h93l-167 -177l-50 13z" />
    <glyph glyph-name="mu" unicode="&#xb5;" horiz-adv-x="628" 
d="M476 511h67l-72 -511h-64l10 73q-19 -15 -42.5 -30t-50 -27t-55 -20t-56.5 -8q-15 0 -27.5 7.5t-23 15.5t-18.5 12.5t-15 -2.5l-23 -197h-67l97 687h67l-48 -336q-6 -46 -2 -73q5 -29 23 -43t54 -14q27 0 54.5 9.5t53 24.5t47.5 33t40 36z" />
    <glyph glyph-name="paragraph" unicode="&#xb6;" horiz-adv-x="557" 
d="M401 -133h-67l113 801h-89l-113 -801h-67l54 384q-83 8 -130 59t-47 135q0 76 25.5 129t69 86.5t99.5 48.5t118 15h153z" />
    <glyph glyph-name="periodcentered" unicode="&#xb7;" horiz-adv-x="176" 
d="M150 312q0 -33 -17.5 -50t-49.5 -17q-51 0 -51 47q0 33 17.5 50t49.5 17q51 0 51 -47z" />
    <glyph glyph-name="cedilla" unicode="&#xb8;" horiz-adv-x="499" 
d="M129 -158q8 -5 22.5 -11.5t31.5 -6.5q28 0 42 15.5t14 34.5q0 24 -16 35t-54 12l31 109l50 -8l-19 -66q24 -5 45 -23t21 -53q0 -49 -31.5 -75.5t-78.5 -26.5q-29 0 -48.5 7t-28.5 14z" />
    <glyph glyph-name="onesuperior" unicode="&#xb9;" horiz-adv-x="290" 
d="M139 349l53 361q-9 -5 -23 -8.5t-28.5 -6t-28 -4t-21.5 -1.5v49q45 4 78 16t59 36h36l-64 -442h-61z" />
    <glyph glyph-name="ordmasculine" unicode="&#xba;" horiz-adv-x="390" 
d="M190 274q-71 0 -103 37.5t-32 104.5q0 39 11.5 75t34.5 64t58 45t82 17q70 0 101 -39.5t31 -102.5q0 -38 -10.5 -74.5t-33 -64.5t-57 -45t-82.5 -17zM196 321q47 0 77.5 30t38.5 95q1 10 1.5 19.5t0.5 18.5q0 87 -80 87q-48 0 -79.5 -30.5t-39.5 -93.5q-1 -9 -1.5 -18
t-0.5 -18q0 -90 83 -90z" />
    <glyph glyph-name="guillemotright" unicode="&#xbb;" horiz-adv-x="427" 
d="M27 103l110 153l-62 152h64l66 -155l-110 -150h-68zM177 103l110 153l-62 152h64l66 -155l-110 -150h-68z" />
    <glyph glyph-name="onequarter" unicode="&#xbc;" horiz-adv-x="855" 
d="M120 281l53 361q-9 -5 -23 -8.5t-28.5 -6t-28 -4t-21.5 -1.5v49q45 4 78 16t59 36h36l-64 -442h-61zM127 -12l460 736h63l-459 -736h-64zM648 0l16 108h-210l6 43l235 291h78l-42 -284h54l-7 -50h-54l-16 -108h-60zM672 158l34 227l-185 -227h151z" />
    <glyph glyph-name="onehalf" unicode="&#xbd;" horiz-adv-x="855" 
d="M130 281l53 361q-9 -5 -23 -8.5t-28.5 -6t-28 -4t-21.5 -1.5v49q45 4 78 16t59 36h36l-64 -442h-61zM110 -12l460 736h63l-459 -736h-64zM469 0l7 50l124 124q34 34 57 58.5t37 43.5t19.5 35.5t5.5 34.5q0 29 -15.5 42t-47.5 13q-33 0 -55 -18t-35 -57l-54 10q7 30 22 52
t35 35.5t45 20t52 6.5q53 0 84 -24.5t31 -73.5q0 -26 -7 -47.5t-22 -43t-37 -45t-52 -52.5l-116 -112h198l-8 -52h-268z" />
    <glyph glyph-name="threequarters" unicode="&#xbe;" horiz-adv-x="855" 
d="M184 -12l460 736h63l-459 -736h-64zM656 0l16 108h-210l6 43l235 291h78l-42 -284h54l-7 -50h-54l-16 -108h-60zM680 158l34 227l-185 -227h151zM236 731q56 0 86 -25t30 -68q0 -27 -10 -47.5t-25.5 -35.5t-34.5 -24t-36 -13v-2q38 -7 60.5 -29t22.5 -65
q0 -68 -43.5 -108t-118.5 -40q-56 0 -90 24.5t-37 78.5l55 10q1 -12 4.5 -23.5t11.5 -21t22 -15.5t37 -6q18 0 35 5.5t30.5 17.5t22 30.5t8.5 44.5q0 40 -23.5 55t-61.5 15h-40l7 47h29q51 0 81.5 25.5t30.5 67.5q0 22 -13 38t-47 16q-38 0 -57.5 -17t-31.5 -47l-54 11
q19 55 58 78t92 23z" />
    <glyph glyph-name="questiondown" unicode="&#xbf;" horiz-adv-x="457" 
d="M164 -215q-37 0 -70 9.5t-58.5 30t-40.5 52.5t-15 77q0 61 20 104t54.5 71.5t81 44.5t99.5 23l18 130h63l-25 -177q-47 -4 -91 -13t-77.5 -29.5t-54 -55t-20.5 -90.5q0 -33 9.5 -56t26.5 -37.5t40 -21.5t50 -7q25 0 49 5t45 18.5t38 37t28 61.5l58 -12
q-8 -32 -24.5 -61.5t-43.5 -52.5t-66 -37t-94 -14zM246 454q0 33 17.5 50t49.5 17q51 0 51 -47q0 -67 -67 -67q-51 0 -51 47z" />
    <glyph glyph-name="Agrave" unicode="&#xc0;" horiz-adv-x="625" 
d="M414 724l142 -724h-69l-44 236h-278l-107 -236h-67l334 724h89zM363 669l-172 -377h242zM336 912l83 -132l-52 -13l-117 145h86z" />
    <glyph glyph-name="Aacute" unicode="&#xc1;" horiz-adv-x="625" 
d="M414 724l142 -724h-69l-44 236h-278l-107 -236h-67l334 724h89zM363 669l-172 -377h242zM440 912h95l-158 -145l-52 13z" />
    <glyph glyph-name="Acircumflex" unicode="&#xc2;" horiz-adv-x="625" 
d="M414 724l142 -724h-69l-44 236h-278l-107 -236h-67l334 724h89zM363 669l-172 -377h242zM466 769l-79 81l-99 -83l-58 10l137 122h54l103 -122z" />
    <glyph glyph-name="Atilde" unicode="&#xc3;" horiz-adv-x="625" 
d="M414 724l142 -724h-69l-44 236h-278l-107 -236h-67l334 724h89zM363 669l-172 -377h242zM319 889q23 0 41 -7.5t33 -16t29.5 -16t31.5 -7.5q19 0 31 11.5t18 43.5l47 -2q-3 -31 -12.5 -52t-23 -34t-30 -18.5t-32.5 -5.5q-23 0 -40.5 7.5t-33.5 16t-31 16t-33 7.5
q-17 0 -28.5 -12.5t-16.5 -44.5l-46 2q3 30 12 51.5t22.5 35t29.5 19.5t32 6z" />
    <glyph glyph-name="Adieresis" unicode="&#xc4;" horiz-adv-x="625" 
d="M414 724l142 -724h-69l-44 236h-278l-107 -236h-67l334 724h89zM363 669l-172 -377h242zM228 825q0 27 17 43t44 16q21 0 33 -12t12 -32q0 -27 -16.5 -42.5t-42.5 -15.5q-22 0 -34.5 11.5t-12.5 31.5zM427 825q0 27 17 43t44 16q21 0 33 -12t12 -32q0 -27 -16.5 -42.5
t-42.5 -15.5q-22 0 -34.5 11.5t-12.5 31.5z" />
    <glyph glyph-name="Aring" unicode="&#xc5;" horiz-adv-x="625" 
d="M491 828q0 -42 -20.5 -69.5t-55.5 -38.5l141 -720h-69l-44 236h-278l-107 -236h-67l333 723q-43 19 -43 72q0 28 10 49.5t26.5 35.5t37.5 21.5t44 7.5q39 0 65.5 -19.5t26.5 -61.5zM363 669l-172 -377h242zM378 759q29 0 44.5 18t15.5 45q0 41 -45 41q-26 0 -43 -15.5
t-17 -46.5q0 -20 11 -31t34 -11z" />
    <glyph glyph-name="AE" unicode="&#xc6;" horiz-adv-x="966" 
d="M474 0l46 330h-225l-233 -330h-72l512 724h466l-8 -56h-327l-39 -279h305l-8 -57h-305l-39 -276h337l-8 -56h-402zM568 668h-40l-197 -281h197z" />
    <glyph glyph-name="Ccedilla" unicode="&#xc7;" horiz-adv-x="662" 
d="M227 -158q8 -5 22.5 -11.5t31.5 -6.5q28 0 42 15.5t14 34.5q0 24 -16 35t-54 12l19 68q-62 4 -106 26.5t-72.5 60t-42 88.5t-13.5 112q0 109 28 195t78 145t118.5 90t148.5 31q54 0 97.5 -16t73.5 -47.5t44.5 -77t11.5 -105.5l-62 -6q0 45 -8.5 80.5t-28 61t-52 39
t-80.5 13.5q-66 0 -121 -26t-95 -76t-62.5 -123t-22.5 -168q0 -127 53.5 -184.5t150.5 -57.5q87 0 139 39.5t83 124.5l59 -13q-17 -54 -44 -91.5t-62 -62t-76 -37t-85 -15.5l-9 -33q24 -5 45 -23t21 -53q0 -49 -31.5 -75.5t-78.5 -26.5q-29 0 -48.5 7t-28.5 14z" />
    <glyph glyph-name="Egrave" unicode="&#xc8;" horiz-adv-x="549" 
d="M61 0l98 724h392l-7 -56h-329l-36 -274h307l-8 -56h-307l-38 -282h338l-8 -56h-402zM348 912l83 -132l-52 -13l-117 145h86z" />
    <glyph glyph-name="Eacute" unicode="&#xc9;" horiz-adv-x="549" 
d="M61 0l98 724h392l-7 -56h-329l-36 -274h307l-8 -56h-307l-38 -282h338l-8 -56h-402zM411 912h95l-158 -145l-52 13z" />
    <glyph glyph-name="Ecircumflex" unicode="&#xca;" horiz-adv-x="549" 
d="M61 0l98 724h392l-7 -56h-329l-36 -274h307l-8 -56h-307l-38 -282h338l-8 -56h-402zM453 769l-79 81l-99 -83l-58 10l137 122h54l103 -122z" />
    <glyph glyph-name="Edieresis" unicode="&#xcb;" horiz-adv-x="549" 
d="M61 0l98 724h392l-7 -56h-329l-36 -274h307l-8 -56h-307l-38 -282h338l-8 -56h-402zM215 825q0 27 17 43t44 16q21 0 33 -12t12 -32q0 -27 -16.5 -42.5t-42.5 -15.5q-22 0 -34.5 11.5t-12.5 31.5zM414 825q0 27 17 43t44 16q21 0 33 -12t12 -32q0 -27 -16.5 -42.5
t-42.5 -15.5q-22 0 -34.5 11.5t-12.5 31.5z" />
    <glyph glyph-name="Igrave" unicode="&#xcc;" horiz-adv-x="265" 
d="M61 0l98 724h64l-98 -724h-64zM182 912l83 -132l-52 -13l-117 145h86z" />
    <glyph glyph-name="Iacute" unicode="&#xcd;" horiz-adv-x="265" 
d="M61 0l98 724h64l-98 -724h-64zM240 912h95l-158 -145l-52 13z" />
    <glyph glyph-name="Icircumflex" unicode="&#xce;" horiz-adv-x="265" 
d="M61 0l98 724h64l-98 -724h-64zM287 769l-79 81l-99 -83l-58 10l137 122h54l103 -122z" />
    <glyph glyph-name="Idieresis" unicode="&#xcf;" horiz-adv-x="265" 
d="M61 0l98 724h64l-98 -724h-64zM49 825q0 27 17 43t44 16q21 0 33 -12t12 -32q0 -27 -16.5 -42.5t-42.5 -15.5q-22 0 -34.5 11.5t-12.5 31.5zM248 825q0 27 17 43t44 16q21 0 33 -12t12 -32q0 -27 -16.5 -42.5t-42.5 -15.5q-22 0 -34.5 11.5t-12.5 31.5z" />
    <glyph glyph-name="Eth" unicode="&#xd0;" horiz-adv-x="714" 
d="M72 0l46 342h-70l8 56h70l44 326h201q79 0 136.5 -20.5t94.5 -58.5t54.5 -92t17.5 -120q0 -93 -24.5 -172.5t-76 -137.5t-130 -90.5t-186.5 -32.5h-185zM265 56q163 0 252 98.5t89 281.5q0 65 -17 109.5t-49 71.5t-78 39t-103 12h-132l-37 -270h247l-8 -56h-246l-39 -286
h121z" />
    <glyph glyph-name="Ntilde" unicode="&#xd1;" horiz-adv-x="714" 
d="M493 0l-282 652l-89 -652h-61l98 724h92l273 -643l88 643h60l-98 -724h-81zM370 889q23 0 41 -7.5t33 -16t29.5 -16t31.5 -7.5q19 0 31 11.5t18 43.5l47 -2q-3 -31 -12.5 -52t-23 -34t-30 -18.5t-32.5 -5.5q-23 0 -40.5 7.5t-33.5 16t-31 16t-33 7.5q-17 0 -28.5 -12.5
t-16.5 -44.5l-46 2q3 30 12 51.5t22.5 35t29.5 19.5t32 6z" />
    <glyph glyph-name="Ograve" unicode="&#xd2;" 
d="M326 -12q-71 0 -122.5 22.5t-85.5 62.5t-50 95t-16 121q0 97 24.5 179t71.5 142t117 93.5t162 33.5q69 0 119.5 -22.5t83 -62t48 -93t15.5 -114.5q0 -107 -25.5 -191.5t-73 -143.5t-115.5 -90.5t-153 -31.5zM332 47q61 0 114.5 24.5t92.5 73t61.5 121t22.5 167.5
q0 57 -14 104q-20 69 -67.5 105.5t-123.5 36.5q-62 0 -116.5 -24.5t-94.5 -72.5t-63 -119.5t-23 -164.5q0 -59 14 -107q20 -70 68.5 -107t128.5 -37zM417 912l83 -132l-52 -13l-117 145h86z" />
    <glyph glyph-name="Oacute" unicode="&#xd3;" 
d="M326 -12q-71 0 -122.5 22.5t-85.5 62.5t-50 95t-16 121q0 97 24.5 179t71.5 142t117 93.5t162 33.5q69 0 119.5 -22.5t83 -62t48 -93t15.5 -114.5q0 -107 -25.5 -191.5t-73 -143.5t-115.5 -90.5t-153 -31.5zM332 47q61 0 114.5 24.5t92.5 73t61.5 121t22.5 167.5
q0 57 -14 104q-20 69 -67.5 105.5t-123.5 36.5q-62 0 -116.5 -24.5t-94.5 -72.5t-63 -119.5t-23 -164.5q0 -59 14 -107q20 -70 68.5 -107t128.5 -37zM475 912h95l-158 -145l-52 13z" />
    <glyph glyph-name="Ocircumflex" unicode="&#xd4;" 
d="M326 -12q-71 0 -122.5 22.5t-85.5 62.5t-50 95t-16 121q0 97 24.5 179t71.5 142t117 93.5t162 33.5q69 0 119.5 -22.5t83 -62t48 -93t15.5 -114.5q0 -107 -25.5 -191.5t-73 -143.5t-115.5 -90.5t-153 -31.5zM332 47q61 0 114.5 24.5t92.5 73t61.5 121t22.5 167.5
q0 57 -14 104q-20 69 -67.5 105.5t-123.5 36.5q-62 0 -116.5 -24.5t-94.5 -72.5t-63 -119.5t-23 -164.5q0 -59 14 -107q20 -70 68.5 -107t128.5 -37zM522 769l-79 81l-99 -83l-58 10l137 122h54l103 -122z" />
    <glyph glyph-name="Otilde" unicode="&#xd5;" 
d="M326 -12q-71 0 -122.5 22.5t-85.5 62.5t-50 95t-16 121q0 97 24.5 179t71.5 142t117 93.5t162 33.5q69 0 119.5 -22.5t83 -62t48 -93t15.5 -114.5q0 -107 -25.5 -191.5t-73 -143.5t-115.5 -90.5t-153 -31.5zM332 47q61 0 114.5 24.5t92.5 73t61.5 121t22.5 167.5
q0 57 -14 104q-20 69 -67.5 105.5t-123.5 36.5q-62 0 -116.5 -24.5t-94.5 -72.5t-63 -119.5t-23 -164.5q0 -59 14 -107q20 -70 68.5 -107t128.5 -37zM375 889q23 0 41 -7.5t33 -16t29.5 -16t31.5 -7.5q19 0 31 11.5t18 43.5l47 -2q-3 -31 -12.5 -52t-23 -34t-30 -18.5
t-32.5 -5.5q-23 0 -40.5 7.5t-33.5 16t-31 16t-33 7.5q-17 0 -28.5 -12.5t-16.5 -44.5l-46 2q3 30 12 51.5t22.5 35t29.5 19.5t32 6z" />
    <glyph glyph-name="Odieresis" unicode="&#xd6;" 
d="M326 -12q-71 0 -122.5 22.5t-85.5 62.5t-50 95t-16 121q0 97 24.5 179t71.5 142t117 93.5t162 33.5q69 0 119.5 -22.5t83 -62t48 -93t15.5 -114.5q0 -107 -25.5 -191.5t-73 -143.5t-115.5 -90.5t-153 -31.5zM332 47q61 0 114.5 24.5t92.5 73t61.5 121t22.5 167.5
q0 57 -14 104q-20 69 -67.5 105.5t-123.5 36.5q-62 0 -116.5 -24.5t-94.5 -72.5t-63 -119.5t-23 -164.5q0 -59 14 -107q20 -70 68.5 -107t128.5 -37zM284 825q0 27 17 43t44 16q21 0 33 -12t12 -32q0 -27 -16.5 -42.5t-42.5 -15.5q-22 0 -34.5 11.5t-12.5 31.5zM483 825
q0 27 17 43t44 16q21 0 33 -12t12 -32q0 -27 -16.5 -42.5t-42.5 -15.5q-22 0 -34.5 11.5t-12.5 31.5z" />
    <glyph glyph-name="multiply" unicode="&#xd7;" horiz-adv-x="570" 
d="M261 272l-123 -109l-41 48l123 109l-92 110l55 48l91 -109l124 109l41 -48l-124 -110l93 -109l-55 -48z" />
    <glyph glyph-name="Oslash" unicode="&#xd8;" 
d="M326 -12q-35 0 -63 6l-29 -72h-62l35 87q-80 32 -117.5 106t-37.5 174q0 97 24.5 179t71.5 142t117 93.5t162 33.5q37 0 72 -8l24 60h62l-32 -78q72 -34 106 -104.5t34 -161.5q0 -107 -25.5 -191.5t-73 -143.5t-115.5 -90.5t-153 -31.5zM135 191q24 -90 96 -124l245 605
q-25 7 -58 7q-62 0 -116.5 -24.5t-94.5 -72.5t-63 -119.5t-23 -164.5q0 -59 14 -107zM332 47q61 0 114.5 24.5t92.5 73t61.5 121t22.5 167.5q0 57 -14 104q-23 77 -80 113l-243 -600q21 -3 46 -3z" />
    <glyph glyph-name="Ugrave" unicode="&#xd9;" horiz-adv-x="690" 
d="M584 235q-33 -247 -278 -247q-130 0 -182 64t-35 184l66 488h64l-65 -484q-14 -107 27 -150.5t127 -43.5q44 0 80 9.5t63 32t45 59.5t25 91l65 486h64zM396 912l83 -132l-52 -13l-117 145h86z" />
    <glyph glyph-name="Uacute" unicode="&#xda;" horiz-adv-x="690" 
d="M584 235q-33 -247 -278 -247q-130 0 -182 64t-35 184l66 488h64l-65 -484q-14 -107 27 -150.5t127 -43.5q44 0 80 9.5t63 32t45 59.5t25 91l65 486h64zM467 912h95l-158 -145l-52 13z" />
    <glyph glyph-name="Ucircumflex" unicode="&#xdb;" horiz-adv-x="690" 
d="M584 235q-33 -247 -278 -247q-130 0 -182 64t-35 184l66 488h64l-65 -484q-14 -107 27 -150.5t127 -43.5q44 0 80 9.5t63 32t45 59.5t25 91l65 486h64zM501 769l-79 81l-99 -83l-58 10l137 122h54l103 -122z" />
    <glyph glyph-name="Udieresis" unicode="&#xdc;" horiz-adv-x="690" 
d="M584 235q-33 -247 -278 -247q-130 0 -182 64t-35 184l66 488h64l-65 -484q-14 -107 27 -150.5t127 -43.5q44 0 80 9.5t63 32t45 59.5t25 91l65 486h64zM263 825q0 27 17 43t44 16q21 0 33 -12t12 -32q0 -27 -16.5 -42.5t-42.5 -15.5q-22 0 -34.5 11.5t-12.5 31.5z
M462 825q0 27 17 43t44 16q21 0 33 -12t12 -32q0 -27 -16.5 -42.5t-42.5 -15.5q-22 0 -34.5 11.5t-12.5 31.5z" />
    <glyph glyph-name="Yacute" unicode="&#xdd;" horiz-adv-x="520" 
d="M255 0h-64l39 284l-177 440h68l148 -376l244 376h68l-286 -437zM369 912h95l-158 -145l-52 13z" />
    <glyph glyph-name="Thorn" unicode="&#xde;" horiz-adv-x="575" 
d="M127 0h-66l102 724h66l-17 -121h132q64 0 108.5 -14t72.5 -38.5t40.5 -57.5t12.5 -72q0 -68 -20.5 -116.5t-59.5 -79.5t-95 -45.5t-127 -14.5h-126zM275 224q49 0 91 7t73.5 27.5t49.5 57.5t18 98q0 69 -46 100t-135 31h-122l-46 -321h117z" />
    <glyph glyph-name="germandbls" unicode="&#xdf;" horiz-adv-x="665" 
d="M21 -212l106 761q8 59 30.5 100.5t56.5 67.5t77.5 38t93.5 12q97 0 145.5 -43t48.5 -114q0 -41 -11 -71.5t-30.5 -53.5t-45.5 -39.5t-56 -28.5v-3q33 -5 62.5 -16.5t52 -32.5t36 -52t13.5 -74q0 -56 -16 -102t-45.5 -79t-71 -51t-92.5 -18q-77 0 -122 37t-50 118l60 10
q3 -23 8.5 -43t17.5 -34.5t32.5 -23t53.5 -8.5q34 0 63 12.5t50 36.5t32.5 58.5t11.5 79.5q0 42 -14.5 70.5t-40 46t-59.5 24.5t-72 7h-42l8 56h15q50 0 85 15t56.5 38.5t31 52.5t9.5 57q0 60 -33 85.5t-94 25.5q-38 0 -70 -8t-56 -27.5t-40 -52.5t-23 -84l-105 -750h-67z
" />
    <glyph glyph-name="agrave" unicode="&#xe0;" horiz-adv-x="574" 
d="M454 86q-3 -21 1 -32.5t23 -11.5q7 0 14.5 1t18.5 4l-6 -45q-10 -4 -21.5 -5.5t-23.5 -1.5q-32 0 -50.5 16.5t-15.5 58.5q-34 -37 -83.5 -59.5t-100.5 -22.5q-35 0 -65 11t-51.5 35t-33.5 61t-12 90q0 56 13 115.5t42 108.5t77 80.5t118 31.5q44 0 83 -17.5t64 -38.5
l8 46h61zM434 406q-11 10 -26 20t-33.5 18.5t-39.5 13.5t-43 5q-51 0 -85.5 -27t-55 -68t-29.5 -89t-9 -89t7.5 -69t22 -45t34.5 -24.5t44 -7.5q41 0 81 18t94 69zM341 572l-117 177h86l83 -164z" />
    <glyph glyph-name="aacute" unicode="&#xe1;" horiz-adv-x="574" 
d="M454 86q-3 -21 1 -32.5t23 -11.5q7 0 14.5 1t18.5 4l-6 -45q-10 -4 -21.5 -5.5t-23.5 -1.5q-32 0 -50.5 16.5t-15.5 58.5q-34 -37 -83.5 -59.5t-100.5 -22.5q-35 0 -65 11t-51.5 35t-33.5 61t-12 90q0 56 13 115.5t42 108.5t77 80.5t118 31.5q44 0 83 -17.5t64 -38.5
l8 46h61zM434 406q-11 10 -26 20t-33.5 18.5t-39.5 13.5t-43 5q-51 0 -85.5 -27t-55 -68t-29.5 -89t-9 -89t7.5 -69t22 -45t34.5 -24.5t44 -7.5q41 0 81 18t94 69zM381 749h93l-167 -177l-50 13z" />
    <glyph glyph-name="acircumflex" unicode="&#xe2;" horiz-adv-x="574" 
d="M454 86q-3 -21 1 -32.5t23 -11.5q7 0 14.5 1t18.5 4l-6 -45q-10 -4 -21.5 -5.5t-23.5 -1.5q-32 0 -50.5 16.5t-15.5 58.5q-34 -37 -83.5 -59.5t-100.5 -22.5q-35 0 -65 11t-51.5 35t-33.5 61t-12 90q0 56 13 115.5t42 108.5t77 80.5t118 31.5q44 0 83 -17.5t64 -38.5
l8 46h61zM434 406q-11 10 -26 20t-33.5 18.5t-39.5 13.5t-43 5q-51 0 -85.5 -27t-55 -68t-29.5 -89t-9 -89t7.5 -69t22 -45t34.5 -24.5t44 -7.5q41 0 81 18t94 69zM421 578l-79 122l-109 -124l-56 8l137 165h67l95 -165z" />
    <glyph glyph-name="atilde" unicode="&#xe3;" horiz-adv-x="574" 
d="M454 86q-3 -21 1 -32.5t23 -11.5q7 0 14.5 1t18.5 4l-6 -45q-10 -4 -21.5 -5.5t-23.5 -1.5q-32 0 -50.5 16.5t-15.5 58.5q-34 -37 -83.5 -59.5t-100.5 -22.5q-35 0 -65 11t-51.5 35t-33.5 61t-12 90q0 56 13 115.5t42 108.5t77 80.5t118 31.5q44 0 83 -17.5t64 -38.5
l8 46h61zM434 406q-11 10 -26 20t-33.5 18.5t-39.5 13.5t-43 5q-51 0 -85.5 -27t-55 -68t-29.5 -89t-9 -89t7.5 -69t22 -45t34.5 -24.5t44 -7.5q41 0 81 18t94 69zM264 708q23 0 41 -7.5t33 -16t29.5 -16t31.5 -7.5q20 0 32 12.5t17 42.5l47 -2q-8 -62 -35.5 -86t-62.5 -24
q-23 0 -40.5 7.5t-33.5 16t-31 16t-33 7.5q-17 0 -28.5 -12.5t-16.5 -44.5l-46 2q7 62 35 87t61 25z" />
    <glyph glyph-name="adieresis" unicode="&#xe4;" horiz-adv-x="574" 
d="M454 86q-3 -21 1 -32.5t23 -11.5q7 0 14.5 1t18.5 4l-6 -45q-10 -4 -21.5 -5.5t-23.5 -1.5q-32 0 -50.5 16.5t-15.5 58.5q-34 -37 -83.5 -59.5t-100.5 -22.5q-35 0 -65 11t-51.5 35t-33.5 61t-12 90q0 56 13 115.5t42 108.5t77 80.5t118 31.5q44 0 83 -17.5t64 -38.5
l8 46h61zM434 406q-11 10 -26 20t-33.5 18.5t-39.5 13.5t-43 5q-51 0 -85.5 -27t-55 -68t-29.5 -89t-9 -89t7.5 -69t22 -45t34.5 -24.5t44 -7.5q41 0 81 18t94 69zM199 660q0 27 17 43t44 16q21 0 33 -12t12 -32q0 -27 -16.5 -42.5t-42.5 -15.5q-22 0 -34.5 11.5t-12.5 31.5
zM398 660q0 27 17 43t44 16q21 0 33 -12t12 -32q0 -27 -16.5 -42.5t-42.5 -15.5q-22 0 -34.5 11.5t-12.5 31.5z" />
    <glyph glyph-name="aring" unicode="&#xe5;" horiz-adv-x="574" 
d="M454 86q-3 -21 1 -32.5t23 -11.5q7 0 14.5 1t18.5 4l-6 -45q-10 -4 -21.5 -5.5t-23.5 -1.5q-32 0 -50.5 16.5t-15.5 58.5q-34 -37 -83.5 -59.5t-100.5 -22.5q-35 0 -65 11t-51.5 35t-33.5 61t-12 90q0 56 13 115.5t42 108.5t77 80.5t118 31.5q44 0 83 -17.5t64 -38.5
l8 46h61zM434 406q-11 10 -26 20t-33.5 18.5t-39.5 13.5t-43 5q-51 0 -85.5 -27t-55 -68t-29.5 -89t-9 -89t7.5 -69t22 -45t34.5 -24.5t44 -7.5q41 0 81 18t94 69zM441 689q0 -53 -32.5 -83.5t-86.5 -30.5q-42 0 -66.5 21.5t-24.5 59.5q0 28 10 49.5t26.5 35.5t37.5 21.5
t44 7.5q39 0 65.5 -19.5t26.5 -61.5zM328 620q29 0 44.5 18t15.5 45q0 41 -45 41q-26 0 -43 -15.5t-17 -46.5q0 -20 11 -31t34 -11z" />
    <glyph glyph-name="ae" unicode="&#xe6;" horiz-adv-x="850" 
d="M580 -12q-65 0 -105 24t-61 66q-53 -49 -103 -69.5t-99 -20.5q-35 0 -65 11t-51.5 35t-33.5 61t-12 90q0 56 13 115.5t42 108.5t77 80.5t118 31.5q44 0 83 -17.5t64 -38.5l8 46h61l-6 -32q28 19 65 30.5t79 11.5q39 0 68.5 -10t49.5 -27.5t30 -41t10 -50.5q0 -44 -20 -75
t-51.5 -51.5t-71.5 -32t-80 -17.5t-76 -8t-61 -3q0 -37 8 -71t31 -57q16 -15 40 -24t60 -9q60 0 95.5 31t48.5 73l57 -12q-11 -39 -32.5 -67t-49.5 -46t-61.5 -26.5t-68.5 -8.5zM396 129q-9 39 -9 83q0 52 13 101.5t40 91.5q-28 26 -65.5 42t-80.5 16q-51 0 -85.5 -27
t-55 -68t-29.5 -89t-9 -89t7.5 -69t22 -45t34.5 -24.5t44 -7.5q21 0 41 4t40.5 13.5t43 26t48.5 41.5zM651 466q-46 0 -80.5 -17.5t-58.5 -46.5t-38 -66.5t-19 -76.5q13 1 39.5 2t59 4.5t67 11.5t63 22t46.5 36t18 55q0 38 -26 57t-71 19z" />
    <glyph glyph-name="ccedilla" unicode="&#xe7;" horiz-adv-x="531" 
d="M149 -158q8 -5 22.5 -11.5t31.5 -6.5q28 0 42 15.5t14 34.5q0 24 -16 35t-54 12l19 69q-43 5 -73 22.5t-49.5 45.5t-28.5 64.5t-9 79.5q0 77 21 136.5t57.5 100t86.5 61.5t109 21q43 0 76.5 -15t55 -41t30.5 -62t4 -78l-64 -5q1 33 -3 59.5t-16.5 45t-35 28.5t-57.5 10
q-33 0 -67.5 -12.5t-63 -42t-46.5 -79t-18 -123.5q0 -45 11 -76t29 -50t42 -27.5t51 -8.5q56 0 95 27t58 88l61 -13q-11 -39 -30.5 -68t-46.5 -48.5t-59.5 -29.5t-67.5 -11l-9 -33q24 -5 45 -23t21 -53q0 -49 -31.5 -75.5t-78.5 -26.5q-29 0 -48.5 7t-28.5 14z" />
    <glyph glyph-name="egrave" unicode="&#xe8;" horiz-adv-x="512" 
d="M242 -12q-54 0 -91 17.5t-59.5 48t-32.5 71.5t-10 87q0 58 16.5 113.5t50 99t83.5 70t117 26.5q39 0 68.5 -10t49.5 -27.5t30 -41t10 -50.5q0 -33 -11.5 -59t-31 -45t-45.5 -32.5t-55 -22.5t-60 -14t-59.5 -8t-54 -4t-43.5 -2q0 -31 5 -60t20 -51.5t42 -36t72 -13.5
q60 0 95.5 31t48.5 73l57 -12q-11 -39 -32.5 -67t-49.5 -46t-61.5 -26.5t-68.5 -8.5zM313 466q-46 0 -80.5 -17.5t-58.5 -46.5t-38 -66.5t-19 -76.5q9 0 31 1t50.5 3.5t61 8t62.5 15.5q39 13 63.5 37.5t24.5 65.5q0 38 -26 57t-71 19zM347 572l-117 177h86l83 -164z" />
    <glyph glyph-name="eacute" unicode="&#xe9;" horiz-adv-x="512" 
d="M242 -12q-54 0 -91 17.5t-59.5 48t-32.5 71.5t-10 87q0 58 16.5 113.5t50 99t83.5 70t117 26.5q39 0 68.5 -10t49.5 -27.5t30 -41t10 -50.5q0 -33 -11.5 -59t-31 -45t-45.5 -32.5t-55 -22.5t-60 -14t-59.5 -8t-54 -4t-43.5 -2q0 -31 5 -60t20 -51.5t42 -36t72 -13.5
q60 0 95.5 31t48.5 73l57 -12q-11 -39 -32.5 -67t-49.5 -46t-61.5 -26.5t-68.5 -8.5zM313 466q-46 0 -80.5 -17.5t-58.5 -46.5t-38 -66.5t-19 -76.5q9 0 31 1t50.5 3.5t61 8t62.5 15.5q39 13 63.5 37.5t24.5 65.5q0 38 -26 57t-71 19zM387 749h93l-167 -177l-50 13z" />
    <glyph glyph-name="ecircumflex" unicode="&#xea;" horiz-adv-x="512" 
d="M242 -12q-54 0 -91 17.5t-59.5 48t-32.5 71.5t-10 87q0 58 16.5 113.5t50 99t83.5 70t117 26.5q39 0 68.5 -10t49.5 -27.5t30 -41t10 -50.5q0 -33 -11.5 -59t-31 -45t-45.5 -32.5t-55 -22.5t-60 -14t-59.5 -8t-54 -4t-43.5 -2q0 -31 5 -60t20 -51.5t42 -36t72 -13.5
q60 0 95.5 31t48.5 73l57 -12q-11 -39 -32.5 -67t-49.5 -46t-61.5 -26.5t-68.5 -8.5zM313 466q-46 0 -80.5 -17.5t-58.5 -46.5t-38 -66.5t-19 -76.5q9 0 31 1t50.5 3.5t61 8t62.5 15.5q39 13 63.5 37.5t24.5 65.5q0 38 -26 57t-71 19zM427 578l-79 122l-109 -124l-56 8
l137 165h67l95 -165z" />
    <glyph glyph-name="edieresis" unicode="&#xeb;" horiz-adv-x="512" 
d="M242 -12q-54 0 -91 17.5t-59.5 48t-32.5 71.5t-10 87q0 58 16.5 113.5t50 99t83.5 70t117 26.5q39 0 68.5 -10t49.5 -27.5t30 -41t10 -50.5q0 -33 -11.5 -59t-31 -45t-45.5 -32.5t-55 -22.5t-60 -14t-59.5 -8t-54 -4t-43.5 -2q0 -31 5 -60t20 -51.5t42 -36t72 -13.5
q60 0 95.5 31t48.5 73l57 -12q-11 -39 -32.5 -67t-49.5 -46t-61.5 -26.5t-68.5 -8.5zM313 466q-46 0 -80.5 -17.5t-58.5 -46.5t-38 -66.5t-19 -76.5q9 0 31 1t50.5 3.5t61 8t62.5 15.5q39 13 63.5 37.5t24.5 65.5q0 38 -26 57t-71 19zM189 660q0 27 17 43t44 16q21 0 33 -12
t12 -32q0 -27 -16.5 -42.5t-42.5 -15.5q-22 0 -34.5 11.5t-12.5 31.5zM388 660q0 27 17 43t44 16q21 0 33 -12t12 -32q0 -27 -16.5 -42.5t-42.5 -15.5q-22 0 -34.5 11.5t-12.5 31.5z" />
    <glyph glyph-name="igrave" unicode="&#xec;" horiz-adv-x="239" 
d="M114 0h-67l72 511h67zM176 572l-117 177h86l83 -164z" />
    <glyph glyph-name="iacute" unicode="&#xed;" horiz-adv-x="239" 
d="M114 0h-67l72 511h67zM216 749h93l-167 -177l-50 13z" />
    <glyph glyph-name="icircumflex" unicode="&#xee;" horiz-adv-x="239" 
d="M114 0h-67l72 511h67zM256 578l-79 122l-109 -124l-56 8l137 165h67l95 -165z" />
    <glyph glyph-name="idieresis" unicode="&#xef;" horiz-adv-x="239" 
d="M114 0h-67l72 511h67zM18 660q0 27 17 43t44 16q21 0 33 -12t12 -32q0 -27 -16.5 -42.5t-42.5 -15.5q-22 0 -34.5 11.5t-12.5 31.5zM217 660q0 27 17 43t44 16q21 0 33 -12t12 -32q0 -27 -16.5 -42.5t-42.5 -15.5q-22 0 -34.5 11.5t-12.5 31.5z" />
    <glyph glyph-name="eth" unicode="&#xf0;" horiz-adv-x="560" 
d="M304 666q-56 38 -128 53l39 43q88 -24 147 -66l116 58l22 -48l-94 -47q55 -57 78 -129.5t23 -156.5q0 -41 -4.5 -86t-15.5 -87.5t-30.5 -81t-49 -67.5t-71 -46t-96.5 -17q-54 0 -92.5 16t-63 44.5t-36 68.5t-11.5 88q0 58 17 112t49.5 94.5t80 65t109.5 24.5
q42 0 81 -13.5t65 -36.5q1 0 1 0.5t1 0.5q-11 56 -34 100t-58 78l-120 -60l-22 47zM292 445q-45 0 -80 -18.5t-59.5 -51t-37 -77t-12.5 -95.5q0 -29 6.5 -58t22 -51.5t41.5 -36.5t65 -14q61 0 101.5 27t64 73t33 107.5t9.5 130.5q-9 12 -24.5 23.5t-35.5 20.5t-44 14.5
t-50 5.5z" />
    <glyph glyph-name="ntilde" unicode="&#xf1;" horiz-adv-x="581" 
d="M117 0h-67l72 511h64l-11 -72q15 13 37 27.5t47.5 26.5t54.5 20t59 8q76 0 111.5 -43.5t23.5 -132.5l-48 -345h-67l48 341q18 123 -77 123q-28 0 -56 -9t-53.5 -22t-47 -28.5t-37.5 -27.5zM274 708q23 0 41 -7.5t33 -16t29.5 -16t31.5 -7.5q20 0 32 12.5t17 42.5l47 -2
q-8 -62 -35.5 -86t-62.5 -24q-23 0 -40.5 7.5t-33.5 16t-31 16t-33 7.5q-17 0 -28.5 -12.5t-16.5 -44.5l-46 2q7 62 35 87t61 25z" />
    <glyph glyph-name="ograve" unicode="&#xf2;" horiz-adv-x="573" 
d="M246 -12q-52 0 -89.5 15t-61.5 42t-35.5 65t-11.5 84q0 17 1 33.5t3 33.5q7 57 28 105t55 82.5t81 53.5t107 19q53 0 89.5 -16t59.5 -43.5t33.5 -65.5t10.5 -82q0 -17 -1 -33.5t-3 -32.5q-14 -123 -82.5 -191.5t-183.5 -68.5zM253 43q78 0 129.5 54t62.5 160q3 27 3 58
q0 147 -133 147q-81 0 -133 -52t-64 -154q-3 -26 -3 -56q0 -76 34 -116.5t104 -40.5zM344 572l-117 177h86l83 -164z" />
    <glyph glyph-name="oacute" unicode="&#xf3;" horiz-adv-x="573" 
d="M246 -12q-52 0 -89.5 15t-61.5 42t-35.5 65t-11.5 84q0 17 1 33.5t3 33.5q7 57 28 105t55 82.5t81 53.5t107 19q53 0 89.5 -16t59.5 -43.5t33.5 -65.5t10.5 -82q0 -17 -1 -33.5t-3 -32.5q-14 -123 -82.5 -191.5t-183.5 -68.5zM253 43q78 0 129.5 54t62.5 160q3 27 3 58
q0 147 -133 147q-81 0 -133 -52t-64 -154q-3 -26 -3 -56q0 -76 34 -116.5t104 -40.5zM384 749h93l-167 -177l-50 13z" />
    <glyph glyph-name="ocircumflex" unicode="&#xf4;" horiz-adv-x="573" 
d="M246 -12q-52 0 -89.5 15t-61.5 42t-35.5 65t-11.5 84q0 17 1 33.5t3 33.5q7 57 28 105t55 82.5t81 53.5t107 19q53 0 89.5 -16t59.5 -43.5t33.5 -65.5t10.5 -82q0 -17 -1 -33.5t-3 -32.5q-14 -123 -82.5 -191.5t-183.5 -68.5zM253 43q78 0 129.5 54t62.5 160q3 27 3 58
q0 147 -133 147q-81 0 -133 -52t-64 -154q-3 -26 -3 -56q0 -76 34 -116.5t104 -40.5zM424 578l-79 122l-109 -124l-56 8l137 165h67l95 -165z" />
    <glyph glyph-name="otilde" unicode="&#xf5;" horiz-adv-x="573" 
d="M246 -12q-52 0 -89.5 15t-61.5 42t-35.5 65t-11.5 84q0 17 1 33.5t3 33.5q7 57 28 105t55 82.5t81 53.5t107 19q53 0 89.5 -16t59.5 -43.5t33.5 -65.5t10.5 -82q0 -17 -1 -33.5t-3 -32.5q-14 -123 -82.5 -191.5t-183.5 -68.5zM253 43q78 0 129.5 54t62.5 160q3 27 3 58
q0 147 -133 147q-81 0 -133 -52t-64 -154q-3 -26 -3 -56q0 -76 34 -116.5t104 -40.5zM267 708q23 0 41 -7.5t33 -16t29.5 -16t31.5 -7.5q20 0 32 12.5t17 42.5l47 -2q-8 -62 -35.5 -86t-62.5 -24q-23 0 -40.5 7.5t-33.5 16t-31 16t-33 7.5q-17 0 -28.5 -12.5t-16.5 -44.5
l-46 2q7 62 35 87t61 25z" />
    <glyph glyph-name="odieresis" unicode="&#xf6;" horiz-adv-x="573" 
d="M246 -12q-52 0 -89.5 15t-61.5 42t-35.5 65t-11.5 84q0 17 1 33.5t3 33.5q7 57 28 105t55 82.5t81 53.5t107 19q53 0 89.5 -16t59.5 -43.5t33.5 -65.5t10.5 -82q0 -17 -1 -33.5t-3 -32.5q-14 -123 -82.5 -191.5t-183.5 -68.5zM253 43q78 0 129.5 54t62.5 160q3 27 3 58
q0 147 -133 147q-81 0 -133 -52t-64 -154q-3 -26 -3 -56q0 -76 34 -116.5t104 -40.5zM186 660q0 27 17 43t44 16q21 0 33 -12t12 -32q0 -27 -16.5 -42.5t-42.5 -15.5q-22 0 -34.5 11.5t-12.5 31.5zM385 660q0 27 17 43t44 16q21 0 33 -12t12 -32q0 -27 -16.5 -42.5
t-42.5 -15.5q-22 0 -34.5 11.5t-12.5 31.5z" />
    <glyph glyph-name="divide" unicode="&#xf7;" horiz-adv-x="569" 
d="M314 181q0 -33 -17 -50t-49 -17q-51 0 -51 47q0 67 67 67q50 0 50 -47zM92 288l9 66h373l-9 -66h-373zM357 483q0 -33 -17.5 -50t-49.5 -17q-51 0 -51 47q0 33 17.5 50t49.5 17q51 0 51 -47z" />
    <glyph glyph-name="oslash" unicode="&#xf8;" horiz-adv-x="573" 
d="M246 -12q-21 0 -40 3l-27 -69h-62l33 83q-54 23 -78 72t-24 117q0 17 1 33.5t3 33.5q7 57 28 105t55 82.5t81 53.5t107 19q9 0 18 -0.5t17 -1.5l27 65h62l-33 -80q55 -24 78.5 -74t23.5 -116q0 -17 -1 -33.5t-3 -32.5q-14 -123 -82.5 -191.5t-183.5 -68.5zM253 43
q78 0 129.5 54t62.5 160q3 27 3 58q0 95 -58 129l-162 -400q6 -1 12 -1h13zM115 200q0 -101 58 -138l162 399q-5 0 -10 0.5t-10 0.5q-81 0 -133 -52t-64 -154q-3 -26 -3 -56z" />
    <glyph glyph-name="ugrave" unicode="&#xf9;" horiz-adv-x="581" 
d="M458 511h67l-72 -511h-61l9 69q-15 -13 -37 -27t-48 -25.5t-55 -19t-59 -7.5q-77 0 -110.5 43.5t-21.5 132.5l48 345h67l-48 -341q-3 -21 -3.5 -38.5t2.5 -31.5q10 -54 79 -54q26 0 52 7t51 19t47 27t40 30zM344 572l-117 177h86l83 -164z" />
    <glyph glyph-name="uacute" unicode="&#xfa;" horiz-adv-x="581" 
d="M458 511h67l-72 -511h-61l9 69q-15 -13 -37 -27t-48 -25.5t-55 -19t-59 -7.5q-77 0 -110.5 43.5t-21.5 132.5l48 345h67l-48 -341q-3 -21 -3.5 -38.5t2.5 -31.5q10 -54 79 -54q26 0 52 7t51 19t47 27t40 30zM401 749h93l-167 -177l-50 13z" />
    <glyph glyph-name="ucircumflex" unicode="&#xfb;" horiz-adv-x="581" 
d="M458 511h67l-72 -511h-61l9 69q-15 -13 -37 -27t-48 -25.5t-55 -19t-59 -7.5q-77 0 -110.5 43.5t-21.5 132.5l48 345h67l-48 -341q-3 -21 -3.5 -38.5t2.5 -31.5q10 -54 79 -54q26 0 52 7t51 19t47 27t40 30zM424 578l-79 122l-109 -124l-56 8l137 165h67l95 -165z" />
    <glyph glyph-name="udieresis" unicode="&#xfc;" horiz-adv-x="581" 
d="M458 511h67l-72 -511h-61l9 69q-15 -13 -37 -27t-48 -25.5t-55 -19t-59 -7.5q-77 0 -110.5 43.5t-21.5 132.5l48 345h67l-48 -341q-3 -21 -3.5 -38.5t2.5 -31.5q10 -54 79 -54q26 0 52 7t51 19t47 27t40 30zM186 660q0 27 17 43t44 16q21 0 33 -12t12 -32
q0 -27 -16.5 -42.5t-42.5 -15.5q-22 0 -34.5 11.5t-12.5 31.5zM385 660q0 27 17 43t44 16q21 0 33 -12t12 -32q0 -27 -16.5 -42.5t-42.5 -15.5q-22 0 -34.5 11.5t-12.5 31.5z" />
    <glyph glyph-name="yacute" unicode="&#xfd;" horiz-adv-x="461" 
d="M47 511h68l82 -432l206 432h70l-270 -541q-28 -55 -49.5 -92t-42.5 -59.5t-44.5 -32t-55.5 -9.5q-28 0 -47.5 5t-33.5 11l13 51q11 -5 29 -10t40 -5q19 0 35 8.5t31.5 28t33 52t38.5 80.5zM324 749h93l-167 -177l-50 13z" />
    <glyph glyph-name="thorn" unicode="&#xfe;" horiz-adv-x="582" 
d="M132 106q8 -7 21.5 -17t31.5 -19.5t40.5 -16t49.5 -6.5q51 0 86 24.5t56.5 64t30.5 89.5t9 101q0 75 -24.5 106t-72.5 31q-25 0 -52.5 -9t-53.5 -22.5t-48 -28.5t-36 -28zM156 755h66l-45 -315q20 15 41.5 29t45.5 25.5t50 18.5t56 7q34 0 63 -10.5t49 -33.5t31.5 -60
t11.5 -89q0 -89 -21 -153.5t-56 -106t-80.5 -61t-93.5 -19.5t-87.5 17.5t-65.5 38.5l-36 -256h-65z" />
    <glyph glyph-name="ydieresis" unicode="&#xff;" horiz-adv-x="461" 
d="M47 511h68l82 -432l206 432h70l-270 -541q-28 -55 -49.5 -92t-42.5 -59.5t-44.5 -32t-55.5 -9.5q-28 0 -47.5 5t-33.5 11l13 51q11 -5 29 -10t40 -5q19 0 35 8.5t31.5 28t33 52t38.5 80.5zM126 660q0 27 17 43t44 16q21 0 33 -12t12 -32q0 -27 -16.5 -42.5t-42.5 -15.5
q-22 0 -34.5 11.5t-12.5 31.5zM325 660q0 27 17 43t44 16q21 0 33 -12t12 -32q0 -27 -16.5 -42.5t-42.5 -15.5q-22 0 -34.5 11.5t-12.5 31.5z" />
    <glyph glyph-name="apostrophe" unicode="&#x2bc;" horiz-adv-x="499" 
d="M317 688h79l-84 -159l-52 8z" />
    <glyph glyph-name="tilde" unicode="&#x2dc;" horiz-adv-x="499" 
d="M268 708q23 0 41 -7.5t33 -16t29.5 -16t31.5 -7.5q20 0 32 12.5t17 42.5l47 -2q-8 -62 -35.5 -86t-62.5 -24q-23 0 -40.5 7.5t-33.5 16t-31 16t-33 7.5q-17 0 -28.5 -12.5t-16.5 -44.5l-46 2q7 62 35 87t61 25z" />
    <glyph glyph-name="endash" unicode="&#x2013;" horiz-adv-x="500" 
d="M-4 255l8 54h499l-8 -54h-499z" />
    <glyph glyph-name="emdash" unicode="&#x2014;" horiz-adv-x="1000" 
d="M-4 255l8 54h999l-8 -54h-999z" />
    <glyph glyph-name="quoteleft" unicode="&#x2018;" horiz-adv-x="187" 
d="M150 557h-79l110 218l52 -8z" />
    <glyph glyph-name="quoteright" unicode="&#x2019;" horiz-adv-x="187" 
d="M155 763h79l-110 -218l-52 8z" />
    <glyph glyph-name="quotedblleft" unicode="&#x201c;" horiz-adv-x="330" 
d="M293 557h-79l110 218l52 -8zM150 557h-79l110 218l52 -8z" />
    <glyph glyph-name="quotedblright" unicode="&#x201d;" horiz-adv-x="330" 
d="M298 763h79l-110 -218l-52 8zM155 763h79l-110 -218l-52 8z" />
    <glyph glyph-name="quotedblbase" unicode="&#x201e;" horiz-adv-x="329" 
d="M53 84h79l-110 -218l-52 8zM195 84h79l-110 -218l-52 8z" />
    <glyph glyph-name="bullet" unicode="&#x2022;" horiz-adv-x="365" 
d="M315 303q0 -75 -40 -113.5t-112 -38.5q-56 0 -85.5 26.5t-29.5 79.5q0 75 39.5 113.5t111.5 38.5q57 0 86.5 -26.5t29.5 -79.5z" />
    <glyph glyph-name="ellipsis" unicode="&#x2026;" horiz-adv-x="582" 
d="M499 55q0 -33 -17.5 -50t-49.5 -17q-51 0 -51 47q0 33 17.5 50t49.5 17q51 0 51 -47zM316 55q0 -33 -17.5 -50t-49.5 -17q-51 0 -51 47q0 33 17.5 50t49.5 17q51 0 51 -47zM133 55q0 -33 -17.5 -50t-49.5 -17q-51 0 -51 47q0 33 17.5 50t49.5 17q51 0 51 -47z" />
    <glyph glyph-name="guilsinglleft" unicode="&#x2039;" horiz-adv-x="278" 
d="M128 103l-66 157l110 148h66l-104 -146l60 -159h-66z" />
    <glyph glyph-name="guilsinglright" unicode="&#x203a;" horiz-adv-x="277" 
d="M27 103l110 153l-62 152h64l66 -155l-110 -150h-68z" />
    <glyph glyph-name="Euro" unicode="&#x20ac;" horiz-adv-x="628" 
d="M163 396q-5 -22 -7 -44t-4 -43h212l-17 -52h-195q2 -59 14.5 -100t33.5 -66t51 -36t67 -11q70 0 114 33t70 108l56 -15q-14 -50 -38.5 -84.5t-57 -56t-70 -31.5t-76.5 -10q-115 0 -170 66.5t-60 202.5h-91l16 52h75q1 21 3 42.5t7 44.5h-64l16 52h60q15 56 42 108
t66.5 92.5t92 64.5t119.5 24q90 0 139.5 -50t42.5 -158l-61 -5q0 41 -5.5 70.5t-20 49t-39.5 29t-63 9.5q-49 0 -88.5 -19t-70 -51t-52.5 -74.5t-35 -89.5h226l-17 -52h-221z" />
    <glyph glyph-name="trademark" unicode="&#x2122;" horiz-adv-x="822" 
d="M752 348v280l-114 -280h-40l-112 281v-281h-49v376h63l120 -302l123 302h57v-376h-48zM247 348h-52v329h-133v47h319v-47h-134v-329z" />
    </font>
</defs>
</svg>
