<?xml version="1.0" standalone="no"?>
<!DOCTYPE svg PUBLIC "-//W3C//DTD SVG 1.1//EN" "http://www.w3.org/Graphics/SVG/1.1/DTD/svg11.dtd" >
<svg>
<metadata>
Created by FontForge 20090914 at Tue Oct 12 11:25:35 2021
 By www-data
Generated by Fontographer 4.0
</metadata>
<defs>
<font id="MaritaMedium-HMK" horiz-adv-x="270" >
  <font-face 
    font-family="Marita Medium - HMK"
    font-weight="400"
    font-stretch="normal"
    units-per-em="774"
    panose-1="0 0 4 0 0 0 0 0 0 0"
    ascent="619"
    descent="-155"
    x-height="204"
    cap-height="454.998"
    bbox="-19.999 -336 769.475 626"
    underline-thickness="20"
    underline-position="-123"
    unicode-range="U+0020-U+221A"
  />
<missing-glyph horiz-adv-x="626" 
d="M39 0v626h548v-626h-548zM548 39v548h-470v-548h470z" />
    <glyph glyph-name=".notdef" horiz-adv-x="626" 
d="M39 0v626h548v-626h-548zM548 39v548h-470v-548h470z" />
    <glyph glyph-name="space" unicode=" " horiz-adv-x="210" 
 />
    <glyph glyph-name="exclam" unicode="!" horiz-adv-x="268" 
d="M129 127l30 277.998c2 16.667 10.333 25 25 25c7.33301 0 13.333 -2.66699 18 -8c4 -3.33301 6.66699 -10.666 8 -21.999c0 -31.333 -4 -80.666 -12 -147.999l-17 -128c-2 -15.333 -11.333 -23 -28 -23c-18 0 -26 8.66699 -24 26zM180 9.99805
c0 -11.333 -3.66602 -21.833 -10.999 -31.5s-16 -14.5 -26 -14.5c-8 0 -17.333 4.33301 -28 13c-3.33301 2.66699 -6 9 -8 19c0 12 4.16699 23.167 12.5 33.5s18.166 15.5 29.499 15.5c8.66699 0 15.667 -3.66699 21 -11c4.66699 -4.66699 8 -12.667 10 -24z" />
    <glyph glyph-name="quotedbl" unicode="&#x22;" horiz-adv-x="177" 
d="M158 435c-8 -42 -19.001 -86 -33.001 -132c-3.33301 -10 -10.666 -15 -21.999 -15c-13.333 0 -20 6.66699 -20 20c0 9.33301 4 29 12 59l21 74c2 10.667 9.33301 16 22 16c13.333 0 20 -7.33301 20 -22zM256.999 430c-12 -46 -26 -89 -42 -129
c-3.33301 -7.33301 -10.333 -12 -21 -14c-14 0 -21 6.66699 -21 20l2 11l22 61l19 60c2 9.33301 9 14 21 14c4 0 8.33301 -1.83301 13 -5.5s7 -9.5 7 -17.5z" />
    <glyph glyph-name="numbersign" unicode="#" horiz-adv-x="424" 
d="M184 126l75 1l23 79h-74zM262 -44c-4 -16.667 -13.6641 -24.999 -28.9971 -24.999c-6 0 -11.167 2.16699 -15.5 6.5s-5.5 10.166 -3.5 17.499l33 121l-76 -1c-6 -24.667 -18 -67 -36 -127c-4 -14 -14 -21 -30 -21c-12 0 -18 6 -18 18c0 10.667 4 31 12 61l20 67h-70
c-16 0 -24 6.66699 -24 20c0 5.33301 3 12 9 20c5.33301 5.33301 12.666 9 21.999 11l78 2l10 39l13 40h-72c-12.667 0 -19 6 -19 18c0 8 2.66699 14.667 8 20s13.666 9 24.999 11l72 2l32 120c4 16 13.333 24 28 24c5.33301 0 10.166 -1.83301 14.499 -5.5
s6.5 -9.5 6.5 -17.5l-31 -121l75 1l21 93c11.333 37.333 25.333 56 42 56c12.667 0 19 -6.33301 19 -19l-2 -19l-9 -35l-20 -76l67 2c16.667 0 25 -6.33301 25 -19c0 -6.66699 -2.83301 -13.167 -8.5 -19.5s-13.5 -10.5 -23.5 -12.5l-74 -2l-24 -79h70
c12.667 0 19 -5.66699 19 -17c0 -7.33301 -3 -14 -9 -20s-14 -10 -24 -12l-68 -2l-18 -67z" />
    <glyph glyph-name="dollar" unicode="$" horiz-adv-x="305" 
d="M213 324l-17.998 -128.002c74.667 -35.333 112 -68.333 112 -99c0 -20 -13.833 -40 -41.5 -60s-60.5 -35 -98.5 -45l-9 -59c-2 -12 -9.33301 -18 -22 -18c-14 0 -21 7.33301 -21 22l6 49l-39 -4c-51.333 0 -77 20.333 -77 61v16c2 5.33301 3.66699 11 5 17s8 9 20 9
c16 0 23 -7.33301 21 -22l-5 -10l-2 -8c2 -14 16.333 -21 43 -21h19c9.33301 2 16.666 3.33301 21.999 4l18 141c-42.667 20.667 -66.667 33.334 -72 38.001c-15.333 11.333 -23 28.333 -23 51c0 41.333 41.333 75.333 124 102l5 36c2 12.667 9.66699 19 23 19
c12 0 18 -6.66699 18 -20l-2 -28c14.667 5.33301 29.667 8 45 8c25.333 0 39.333 -6.33301 42 -19l1 -12c0 -16.667 -7.66699 -25 -23 -25l-12 1c-4 2.66699 -6.66699 5.33398 -8 8.00098c0 4 -1.33301 6.33301 -4 7c-12.667 0 -28.334 -3.66699 -47.001 -11z
M167.002 311.998c-48 -20 -72 -39 -72 -57c0 -6 20 -20 60 -42zM188.002 148.998c0 -13.333 -4.66699 -50.334 -14 -111.001c22 6 42.333 15.333 61 28s28 23.334 28 32.001c0 4 -2 8 -6 12c-16 15.333 -39 28.333 -69 39z" />
    <glyph glyph-name="percent" unicode="%" horiz-adv-x="500" 
d="M257 324c0 -34.667 -13.832 -68.501 -41.499 -101.501s-58.5 -49.5 -92.5 -49.5c-15.333 0 -30.333 4.33301 -45 13s-22 27.667 -22 57c0 15.333 1.66699 29.333 5 42s6.16602 21.334 8.49902 26.001s6.5 11.667 12.5 21c28 46 60 69 96 69l20 -1
c4.66699 0 11.667 -2.33301 21 -7c25.333 -10 38 -33 38 -69zM149.001 337.999c-13.333 -13.333 -24.666 -28.667 -33.999 -46c-7.33301 -16.667 -11 -34 -11 -52c0 -12.667 7.66699 -19 23 -19c6 0 10 0.666992 12 2c23.333 10 41.666 25.667 54.999 47
c10.667 18 16 37 16 57c0 16.667 -8.33301 25 -25 25l-19 -3c-6 -2 -11.667 -5.66699 -17 -11zM448.001 355.998c-36.667 -36.667 -85.332 -97 -145.999 -181c-54 -76 -101.333 -149.667 -142 -221c-3.33301 -6 -8 -9 -14 -9s-11.333 2.16699 -16 6.5s-8 10.833 -10 19.5
l3 12c103.333 178.667 203.666 318.667 300.999 420l12 5c6 0 13 -4 21 -12c5.33301 -5.33301 9 -13 11 -23c0 -7.33301 -3.33301 -12 -10 -14zM487.003 99.998c0 -34.667 -13.832 -68.501 -41.499 -101.501s-58.5 -49.5 -92.5 -49.5c-15.333 0 -30.333 4.33301 -45 13
s-22 27.667 -22 57c0 15.333 1.66699 29.333 5 42s6.16602 21.334 8.49902 26.001s6.5 11.667 12.5 21c28 46 60 69 96 69l20 -1c4.66699 0 11.667 -2.33301 21 -7c25.333 -10 38 -33 38 -69zM379.004 113.997c-13.333 -13.333 -24.666 -28.667 -33.999 -46
c-7.33301 -16.667 -11 -34 -11 -52c0 -12.667 7.66699 -19 23 -19c6 0 10 0.666992 12 2c23.333 10 41.666 25.667 54.999 47c10.667 18 16 37 16 57c0 16.667 -8.33301 25 -25 25l-19 -3c-6 -2 -11.667 -5.66699 -17 -11z" />
    <glyph glyph-name="ampersand" unicode="&#x26;" horiz-adv-x="342" 
d="M232 344l-27.9971 -4.00391l-23 -4c-18.667 -4 -35 -10 -49 -18c-8 -4 -12 -9 -12 -15c0 -4 2 -8 6 -12c9.33301 -10 19.666 -17.667 30.999 -23l44 -4c12 0 18 -6.66699 18 -20c0 -12 -5.66699 -20 -17 -24c-36.667 -12 -69.334 -30.833 -98.001 -56.5
s-43 -51.5 -43 -77.5c0 -16.667 8.66699 -33.167 26 -49.5s39.333 -24.5 66 -24.5c40 0 75.667 14.333 107 43c18.667 18.667 28 34.334 28 47.001c0 8.66699 -3.66699 16.667 -11 24c-10 8 -21 12.667 -33 14l-54 -10c-6.66699 -1.33301 -12.167 -0.166016 -16.5 3.50098
s-7.5 9.83398 -9.5 18.501c0 10 6 17 18 21c28 8.66699 54 13 78 13l101 22c15.333 3.33301 23 -4 23 -22c0 -6.66699 -3.66699 -12 -11 -16l-65 -16c16 -11.333 24 -28.333 24 -51c0 -18.667 -5 -35 -15 -49c-44 -55.333 -99.333 -83 -166 -83
c-32.667 0 -60.667 7.66699 -84 23c-32.667 21.333 -49 54.333 -49 99c0 14.667 3 29 9 43c20 40.667 55.333 73.334 106 98.001c-40 21.333 -60 44.666 -60 69.999l1 9c4 21.333 20.667 39 50 53c15.333 6.66699 32.833 11.667 52.5 15s43.5 5 71.5 5
c22 0 35.333 -8.33301 40 -25c1.33301 -7.33301 -0.833984 -13.166 -6.50098 -17.499s-12.5 -6.5 -20.5 -6.5l-16 3z" />
    <glyph glyph-name="quotesingle" unicode="'" horiz-adv-x="80" 
d="M158 434c-8 -42 -19.001 -86 -33.001 -132c-3.33301 -10 -10.666 -15 -21.999 -15c-13.333 0 -20 6.66699 -20 20c0 9.33301 4 29 12 59l21 74c2 10.667 9.33301 16 22 16c13.333 0 20 -7.33301 20 -22z" />
    <glyph glyph-name="parenleft" unicode="(" horiz-adv-x="320" 
d="M361 487c-38.667 -12 -76.166 -44.1689 -112.499 -96.502s-59.5 -111.166 -69.5 -176.499l-4 -56c0 -51.333 13 -110 39 -176c1.33301 -3.33301 5.16602 -6.16602 11.499 -8.49902s11.833 -8.83301 16.5 -19.5l1 -9c0 -10 -6.66699 -17.333 -20 -22l-11 -2
c-5.33301 0 -11 3 -17 9c-40.667 62 -61 139 -61 231l3 59c6 63.333 30 126.333 72 189s85 101 129 115l11 2c12 0 20 -5.66699 24 -17c2 -10 -2 -17.333 -12 -22z" />
    <glyph glyph-name="parenright" unicode=")" horiz-adv-x="300" 
d="M19 -53c30.667 23.333 60.999 62.332 90.999 116.999c34 64 51 127.667 51 191c0 11.333 -0.333008 22.5 -1 33.5s-2.16699 24.5 -4.5 40.5s-8.16602 36.333 -17.499 61c-14 42.667 -32 75 -54 97c-2.66699 2.66699 -5 7.66699 -7 15c0 6.66699 4.33301 12.334 13 17.001
c8 3.33301 16 2 24 -4c20 -16 40 -51.167 60 -105.5s30 -115.166 30 -182.499c0 -56 -21 -121 -63 -195c-38 -66 -77 -113 -117 -141c-4.66699 -3.33301 -12 -6 -22 -8c-14 0 -21 7.33301 -21 22c0 7.33301 2.66699 14.666 8 21.999c2 4 7 8 15 12z" />
    <glyph glyph-name="asterisk" unicode="*" horiz-adv-x="244" 
d="M250 435c0 13.333 -7.33008 21.3301 -21.9971 23.9971c-15.333 2 -26 -7.66699 -32 -29l-4 -67l-42 48c-6 6 -12.667 9 -20 9c-5.33301 0 -12 -3 -20 -9c-3.33301 -4 -6 -10.667 -8 -20c0 -8 4 -15 12 -21l60 -30c-16.667 -3.33301 -40.334 -9.66602 -71.001 -18.999
c-16 -3.33301 -24 -12 -24 -26c0 -15.333 7.66699 -23 23 -23c6 0 12 2 18 6l62 37l-19 -39c-4.66699 -12 -8 -23.667 -10 -35c0 -16 7.33301 -24 22 -24c15.333 0 25.666 9 30.999 27l3 68l44 -46c5.33301 -6 11.666 -9 18.999 -9c8 0 15.333 3.33301 22 10
c4 5.33301 6 11.333 6 18s-3.33301 13.334 -10 20.001c-12 8 -32.667 18.333 -62 31l34 6l36 11c17.333 5.33301 26 14.333 26 27c0 6 -2.33301 11.333 -7 16s-10.334 7 -17.001 7c-5.33301 0 -10.666 -1.33301 -15.999 -4l-66 -38c21.333 36.667 32 61.334 32 74.001z" />
    <glyph glyph-name="plus" unicode="+" horiz-adv-x="374" 
d="M337 116l-114 2l-4 -105c0 -12.667 -6.66699 -19 -20 -19s-20 7 -20 21l4 103h-55c-16.667 0 -31 -0.666992 -43 -2c-14.667 0 -22 6.33301 -22 19c0 10.667 6.66699 17 20 19c20.667 0 39.167 0.333008 55.5 1s31.833 1.33398 46.5 2.00098l4 111
c0 13.333 6.66699 20 20 20s20 -6.66699 20 -20c0 -8.66699 -0.833008 -26.334 -2.5 -53.001s-2.5 -46 -2.5 -58l61 -2l53 -1c12.667 0 19 -6 19 -18c0 -13.333 -6.66699 -20 -20 -20z" />
    <glyph glyph-name="comma" unicode="," horiz-adv-x="170" 
d="M65 -20c-16 -2 -24 6.66602 -24 25.999c0 7.33301 2 17 6 29s13 18 27 18c8.66699 0 17.667 -4.16699 27 -12.5s14 -23.166 14 -44.499l-3 -26l-10 -29c-6.66699 -16 -17.667 -29.667 -33 -41l-9 -3c-6 0 -11 2.16699 -15 6.5s-6 9.5 -6 15.5
c0 4.66699 1.66699 8.66699 5 12l19 23c4 6.66699 6.66699 14 8 22c-2.66699 2.66699 -4.66699 4 -6 4z" />
    <glyph glyph-name="hyphen" unicode="-" horiz-adv-x="288" 
d="M250 125l-153 0.000976562c-15.333 0 -23 6.66699 -23 20c0 14 6.66699 21 20 21h154c18 0 27 -7 27 -21c0 -10.667 -8.33301 -17.334 -25 -20.001z" />
    <glyph glyph-name="period" unicode="." horiz-adv-x="160" 
d="M119 25c0 -11.333 -3.66602 -21.833 -10.999 -31.5s-16 -14.5 -26 -14.5c-8 0 -17.333 4.33301 -28 13c-3.33301 2.66699 -6 9 -8 19c0 12 4.16699 23.167 12.5 33.5s18.166 15.5 29.499 15.5c8.66699 0 15.667 -3.66699 21 -11c4.66699 -4.66699 8 -12.667 10 -24z" />
    <glyph glyph-name="slash" unicode="/" horiz-adv-x="278" 
d="M61 -60c-4 -10.667 -11.334 -15.999 -22.001 -15.999c-4 0 -9.66699 2 -17 6c-2.66699 2.66699 -5 7.66699 -7 15l2 7c36.667 82.667 84.667 175 144 277c32.667 56 61.334 102.333 86.001 139c12 18 25 36.333 39 55c11.333 15.333 23.333 30.666 36 45.999
c4 5.33301 11 9 21 11c6.66699 0 12.667 -2.66699 18 -8c5.33301 -4 8.33301 -9.66699 9 -17c0 -7.33301 -3 -12 -9 -14l-9 -3c-68 -50 -165 -216 -291 -498z" />
    <glyph glyph-name="zero" unicode="0" horiz-adv-x="420" 
d="M228 375c6 16 22.999 24 50.999 24c14.667 0 28.667 -3.33301 42 -10c26.667 -14 48 -30 64 -48c16 -21.333 26.667 -53 32 -95l1 -12v-12c0 -62 -21.833 -122.167 -65.5 -180.5s-93.5 -90.5 -149.5 -96.5c-21.333 0 -40.666 2.83301 -57.999 8.5s-34 15.5 -50 29.5
c-33.333 29.333 -50 70 -50 122c0 31.333 4.5 60.5 13.5 87.5s23.167 55.833 42.5 86.5c36 59.333 78.333 91.333 127 96zM206.999 316c-27.333 -14 -52.167 -43.167 -74.5 -87.5s-33.5 -86.5 -33.5 -126.5c0 -30 9.66699 -55.667 29 -77c17.333 -18.667 38.333 -28 63 -28
c20 0 46 11 78 33c26 18 48 46.333 66 85c9.33301 20 16.333 39.167 21 57.5s7 37.5 7 57.5c0 64.667 -27 103 -81 115l2 -9v-6c0 -8 -2.16699 -14 -6.5 -18s-10.166 -6.33301 -17.499 -7c-10 0 -18 5.33301 -24 16c-8.66699 2 -18.334 0.333008 -29.001 -5z" />
    <glyph glyph-name="one" unicode="1" horiz-adv-x="192" 
d="M78 395c39.333 14 64.001 20.999 74.001 20.999c24 0 36 -11.667 36 -35c0 -13.333 -2.33301 -33 -7 -59l-21 -119l-47 -223l1 -14c0 -6.66699 -2.33301 -13 -7 -19s-11.334 -9 -20.001 -9c-6.66699 0 -13.167 2.66699 -19.5 8s-9.5 13 -9.5 23
c6.66699 45.333 21 114.333 43 207l22 106l13 77l-39 -12c-8 -2 -15 -0.166992 -21 5.5s-10 13.834 -12 24.501c0 8 4.66699 14 14 18z" />
    <glyph glyph-name="two" unicode="2" horiz-adv-x="376" 
d="M83 331c56 34 115.001 51 177.001 51c45.333 0 76.666 -10 93.999 -30c2.66699 -3.33301 5.5 -8.5 8.5 -15.5s4.5 -14.833 4.5 -23.5c0 -18.667 -5.66699 -36 -17 -52c-20 -28.667 -63 -76 -129 -142l-119 -120c64 0 148 9.33301 252 28c10 2 18 0 24 -6
c6 -4.66699 9.33301 -11.334 10 -20.001c0 -10 -4.66699 -17 -14 -21c-20.667 -8 -56.334 -15.667 -107.001 -23c-21.333 -2.66699 -47.666 -5 -78.999 -7s-63.333 -3 -96 -3c-34 0 -51 13.333 -51 40c0 11.333 5 24 15 38c20 24.667 66.333 71.667 139 141
c64.667 62.667 103.667 106 117 130l4 13c0 10.667 -7.66699 17.334 -23 20.001c-39.333 0 -74 -3.16699 -104 -9.5s-55.667 -17.166 -77 -32.499l-14 -4c-7.33301 0 -14 2.66699 -20 8s-9 11.666 -9 18.999c0 8.66699 4.66699 15.667 14 21z" />
    <glyph glyph-name="three" unicode="3" horiz-adv-x="398" 
d="M311 360c-97.333 0 -175.665 -12.6729 -234.998 -38.0059l-13 -3c-7.33301 0 -13 2.16699 -17 6.5s-7 10.833 -9 19.5c0 8.66699 5 16 15 22c62 28 144 42 246 42h21l23 -2c8.66699 0 17 -4.16699 25 -12.5s12 -17.166 12 -26.499
c0 -7.33301 -2.33301 -13.666 -7 -18.999c-23.333 -28 -67 -64.333 -131 -109c48 0 84.667 -10.167 110 -30.5s38 -50.166 38 -89.499c0 -34 -31.667 -69.667 -95 -107c-56 -32 -104.333 -48 -145 -48c-28.667 0 -50.834 7.16699 -66.501 21.5s-23.5 32.833 -23.5 55.5l1 18
c0 4.66699 2.16699 11.834 6.5 21.501s11.833 14.834 22.5 15.501c10 0 18 -5 24 -15l2 -19l-3 -17c0 -20.667 11.667 -31 35 -31s51.666 8 84.999 24s63 35 89 57c9.33301 8 14 18.333 14 31c0 14 -6 26.667 -18 38c-28 20 -61.667 30 -101 30
c-30 0 -55.667 -5.33301 -77 -16l-16 -4c-8.66699 0 -16 2.66699 -22 8c-4 5.33301 -6.66699 12 -8 20c0 12 8.66699 21.333 26 28c4 0.666992 8.5 1.83398 13.5 3.50098s10.5 4.16699 16.5 7.5c80 50.667 134 90 162 118z" />
    <glyph glyph-name="four" unicode="4" horiz-adv-x="414" 
d="M345 389l1.00195 -33.999l-1 -104c0 -11.333 -0.333008 -28 -1 -50s-1 -38 -1 -48l42 -1c14.667 0 26.167 -1.66699 34.5 -5s12.5 -11.333 12.5 -24c0 -16 -7.66699 -25 -23 -27l-14 2l-11 3l-45 -1l-16 -126c-2 -14.667 -10.667 -22 -26 -22
c-8.66699 0 -15.334 2.16699 -20.001 6.5s-7 10.166 -7 17.499l17 120c-67.333 -6 -117 -9 -149 -9c-36 0 -63 3 -81 9s-27 21 -27 45c0 10 3 21.667 9 35c19.333 34.667 58.666 77.667 117.999 129c44.667 39.333 90 74 136 104l22 7c18 0 28 -9 30 -27zM294.002 350.001
c-32.667 -24 -72.333 -57.333 -119 -100c-49.333 -46.667 -81.333 -83 -96 -109c12 -4 31.333 -6 58 -6c37.333 0 89 4 155 12l1 98z" />
    <glyph glyph-name="five" unicode="5" horiz-adv-x="409" 
d="M192 377c121.333 11.333 190.666 16.998 207.999 16.998c19.333 0 29 -9 29 -27c0 -14 -6.66699 -21 -20 -21l-232 -19c0 -11.333 -5.66699 -26.666 -17 -45.999l-23 -45l49 8l49 3c56 0 97.333 -12.333 124 -37c20.667 -20.667 31 -46.667 31 -78
c0 -38 -15 -73.833 -45 -107.5s-75.333 -58.167 -136 -73.5c-20 -4 -39.333 -6 -58 -6c-32 0 -57 5.66699 -75 17c-19.333 10 -29 22 -29 36c0 10 5.33301 18 16 24l14 4c4.66699 0 10 -2 16 -6c4 -6 12 -13 24 -21c11.333 -2.66699 19.333 -4.16699 24 -4.5
s9.66699 -0.5 15 -0.5c42.667 0 82.667 12.667 120 38c40 27.333 60 59 60 95c0 30 -10.667 49 -32 57s-48 12 -80 12c-42 0 -73.667 -5 -95 -15c-8 -4 -17 -6 -27 -6c-11.333 0 -20.166 2.16699 -26.499 6.5s-9.83301 11.833 -10.5 22.5
c0 8.66699 7.66699 26.334 23 53.001l34 64c-14 0 -24.667 1.83301 -32 5.5s-11.333 9.5 -12 17.5c0 9.33301 3 16 9 20l22 7c8 2 18.667 3 32 3c-0.666992 9.33301 1.33301 17.333 6 24c6 6 14.333 10 25 12c14.667 0 22 -6.66699 22 -20z" />
    <glyph glyph-name="six" unicode="6" horiz-adv-x="378" 
d="M133 148c36.667 15.333 71.334 23.0029 104.001 23.0029c39.333 0 72 -13 98 -39c11.333 -12 19.333 -26.667 24 -44c2.66699 -8.66699 4.66699 -17.834 6 -27.501s2 -21.167 2 -34.5c0 -20.667 -8.66699 -36.334 -26 -47.001
c-24.667 -13.333 -48.334 -23.333 -71.001 -30s-46.667 -10 -72 -10c-32.667 0 -60.667 5.5 -84 16.5s-41 27.5 -53 49.5c-7.33301 16.667 -11 34.667 -11 54c0 56 23.5 120.167 70.5 192.5s93.833 121.5 140.5 147.5c10.667 5.33301 21.667 8 33 8
c27.333 0 43.333 -7.33301 48 -22l2 -9c0 -8.66699 -4.33301 -16.334 -13 -23.001c-3.33301 -2 -8.33301 -3.66699 -15 -5l-10 3c-4 2 -8.66699 3 -14 3l-11 -3c-62 -44 -114.333 -110.667 -157 -200v-5zM102 55.0029c-2 -18 6.66602 -33.332 25.999 -45.999
c22 -12.667 47 -19 75 -19c32.667 0 64.334 7.66699 95.001 23c12 6 18 15.667 18 29c0 25.333 -7.5 44.666 -22.5 57.999s-34.833 20 -59.5 20c-38 0 -78 -14 -120 -42c-6 -4 -10 -11.667 -12 -23z" />
    <glyph glyph-name="seven" unicode="7" horiz-adv-x="337" 
d="M59 379c12.667 2.66699 29.832 5.49902 51.499 8.49902s49 6.16699 82 9.5s72.833 5 119.5 5l35 -1c11.333 0 21.5 -4.16699 30.5 -12.5s13.5 -16.5 13.5 -24.5c0 -4.66699 -0.666992 -8.33398 -2 -11.001l-82 -118c-51.333 -77.333 -86.666 -142.666 -105.999 -195.999
l-4 -26l-1 -34c0 -7.33301 -2.66699 -14.166 -8 -20.499s-13 -10.5 -23 -12.5c-12 0 -19.333 7.33301 -22 22l-1 26c0 32.667 6.33301 61.667 19 87c36 75.333 91 165.333 165 270c-66 0 -150 -7.33301 -252 -22c-22.667 -3.33301 -34 5 -34 25c0 14 6.33301 22.333 19 25z
" />
    <glyph glyph-name="eight" unicode="8" horiz-adv-x="440" 
d="M347 227c54.667 -27.333 82.002 -68.002 82.002 -122.002c0 -23.333 -7 -46.666 -21 -69.999c-16 -26.667 -43.333 -47.834 -82 -63.501s-80 -23.5 -124 -23.5c-72 0 -122.667 21.667 -152 65c-9.33301 14.667 -14 33.334 -14 56.001c0 60 28.667 108.667 86 146
c-35.333 17.333 -53 42.333 -53 75c0 22.667 7.66699 44.834 23 66.501s34.666 38.5 57.999 50.5c18.667 8.66699 33.667 13 45 13c12.667 0 22.667 -3.33301 30 -10c10 8 24 12 42 12c29.333 0 56.666 -12.167 81.999 -36.5s38 -52.5 38 -84.5
c0 -27.333 -13.333 -52 -40 -74zM177.002 362.998c-36 -26 -54 -50.667 -54 -74c0 -15.333 9.66699 -26.333 29 -33l26 -5l38 -2c48 0 81.333 6.33301 100 19c11.333 8 17 19 17 33c0 14.667 -6.16699 29.167 -18.5 43.5s-25.833 22.833 -40.5 25.5
c-15.333 0 -24.666 -5 -27.999 -15c-2 -9.33301 -11.333 -14 -28 -14c-12 0 -19 4 -21 12c-0.666992 8 -4.33398 12.333 -11.001 13zM176.002 186.998c-12.667 -6 -24.5029 -13.165 -35.5029 -21.498s-20.167 -17.5 -27.5 -27.5c-2 -2.66699 -4.66699 -6.83398 -8 -12.501
s-6.66602 -12.667 -9.99902 -21s-5 -17.833 -5 -28.5c0 -19.333 8 -37 24 -53c16.667 -14.667 44.334 -22 83.001 -22c30.667 0 60.5 4.5 89.5 13.5s49.833 20.167 62.5 33.5c18 19.333 27 38.666 27 57.999c0 26 -18 51 -54 75c-10 6.66699 -25 12 -45 16l-20 1l-21 -1h-23
c-11.333 0 -23.666 -3.33301 -36.999 -10z" />
    <glyph glyph-name="nine" unicode="9" horiz-adv-x="382" 
d="M330 356c-7.33301 10 -20.668 15.001 -40.001 15.001c-28.667 0 -64 -12 -106 -36c-16 -10 -30.333 -25.333 -43 -46c-24 -42 -36 -72 -36 -90c0 -12.667 8.33301 -19 25 -19c18 2 44.667 12 80 30c17.333 8 33.666 17.333 48.999 28l47 34c0 42 11 63 33 63
c8 0 16 -4.16699 24 -12.5s12 -18.5 12 -30.5c0 -16 -6.33301 -30 -19 -42c0 -60.667 -10.667 -162.334 -32 -305.001c-2 -13.333 -11.667 -20 -29 -20c-20 0 -31.333 9.33301 -34 28l-1 13c0 9.33301 2 16.666 6 21.999s8 8 12 8l15 95c5.33301 44 8 82 8 114
c-78.667 -51.333 -138.667 -77 -180 -77c-20 0 -36.333 6.33301 -49 19s-19 29.334 -19 50.001c0 18 6 40 18 66c8.66699 19.333 16.167 34.5 22.5 45.5s14.5 21.833 24.5 32.5c16 18 36.333 34.333 61 49c36.667 19.333 75.334 29 116.001 29
c36.667 0 61.334 -9.33301 74.001 -28l4 -16c0 -10 -5 -18.667 -15 -26l-11 -2c-5.33301 0 -11 3 -17 9z" />
    <glyph glyph-name="colon" unicode=":" horiz-adv-x="160" 
d="M153 12c0 -10 -4.33105 -19.168 -12.998 -27.501s-18.334 -12.5 -29.001 -12.5c-8 0 -15.5 2.5 -22.5 7.5s-10.5 13.167 -10.5 24.5c0 12 3.5 22.333 10.5 31s16.5 13 28.5 13c9.33301 0 17.166 -3.16699 23.499 -9.5s10.5 -15.166 12.5 -26.499zM171.002 227.999
c0 -11.333 -3.49902 -21.833 -10.499 -31.5s-15.833 -14.5 -26.5 -14.5c-8 0 -17.333 4.33301 -28 13c-3.33301 2.66699 -6 9 -8 19c0 12 4.16699 23.167 12.5 33.5s18.166 15.5 29.499 15.5c8.66699 0 15.667 -3.66699 21 -11c4.66699 -4.66699 8 -12.667 10 -24z" />
    <glyph glyph-name="semicolon" unicode=";" horiz-adv-x="160" 
d="M178 218c0 -11.333 -3.16699 -21.167 -9.5 -29.5s-15.166 -13.5 -26.499 -15.5c-8 0 -16 3 -24 9c-4.66699 4.66699 -8 12.667 -10 24c0 12 3.66699 22.333 11 31s16.666 14 27.999 16c8.66699 0 15.667 -3.66699 21 -11c4.66699 -4.66699 8 -12.667 10 -24zM104 -23.001
c-14.667 -2 -22.002 5.66699 -22.002 23c0 9.33301 1.83301 19 5.5 29s11.834 15 24.501 15c8.66699 0 17.167 -3.66699 25.5 -11s12.5 -21.333 12.5 -42c0 -18 -3.66699 -34.833 -11 -50.5s-17.666 -28.167 -30.999 -37.5c-2 -2 -5 -3 -9 -3c-12.667 0 -19 7 -19 21
c0 4 1.66699 7.66699 5 11l19 22c4 6 6 12.333 6 19c-2.66699 2.66699 -4.66699 4 -6 4z" />
    <glyph glyph-name="less" unicode="&#x3c;" horiz-adv-x="374" 
d="M103 115l97.001 -43.999l95 -44c8 -4 12.667 -11 14 -21c0 -10 -5.66699 -15 -17 -15c-6 0 -43.667 16 -113 48l-76 34c-40 18.667 -60.333 33 -61 43c0 9.33301 8 17.666 24 24.999l114 40l123 40l13 3c12.667 0 19 -6 19 -18c0 -10 -5.66699 -17.333 -17 -22
c-42.667 -12.667 -114.334 -35.667 -215.001 -69z" />
    <glyph glyph-name="equal" unicode="=" horiz-adv-x="376" 
d="M340 142l-56.998 2l-75 2c-24.667 0 -46.834 -0.166992 -66.501 -0.5s-36.834 -0.5 -51.501 -0.5c-5.33301 0 -10.333 2 -15 6s-7 9 -7 15c0 8.66699 6 14 18 16l77 3l110 1c59.333 0 89 -8.33301 89 -25c0 -12.667 -7.33301 -19 -22 -19zM325.002 57l-72 1l-89 1
c-12.667 0 -29 -0.333008 -49 -1s-33.667 -1 -41 -1c-14.667 0 -22 6.66699 -22 20c0 12 6.33301 18 19 18l120 2h75l59 -1c14 0 21 -6.66699 21 -20c0 -12.667 -7 -19 -21 -19z" />
    <glyph glyph-name="greater" unicode="&#x3e;" horiz-adv-x="374" 
d="M282 106l-95.999 42.998l-96 44c-8 4 -12.333 10.667 -13 20c0 10.667 5.66699 16 17 16c6 0 43.667 -16 113 -48l76 -34c40 -18.667 60.333 -33 61 -43c0 -9.33301 -8 -17.666 -24 -24.999l-130 -45c-14.667 -4 -34 -10 -58 -18l-49 -17l-13 -3c-12.667 0 -19 6 -19 18
c0 10 5.66699 17.333 17 22l108 35l43.5 13.5c18.333 5.66699 39.166 12.834 62.499 21.501z" />
    <glyph glyph-name="question" unicode="?" horiz-adv-x="400" 
d="M219 16c0 -12 -3.66699 -22.667 -11 -32s-17 -14 -29 -14c-6.66699 0 -13.5 2.5 -20.5 7.5s-11.5 12.5 -13.5 22.5c0 12 4 23 12 33s18.333 15 31 15c8 0 15 -3.33301 21 -10c6 -4.66699 9.33301 -12 10 -22zM101 388c24.667 20.667 67.6641 30.999 128.997 30.999
c41.333 0 76.833 -5.5 106.5 -16.5s48.5 -28.167 56.5 -51.5l4 -19l1 -18c0 -40.667 -21.667 -75.667 -65 -105l-124 -72l-5 -6l4 -3c18.667 0 28 -8.33301 28 -25c0 -6.66699 -3.66699 -13.167 -11 -19.5s-15.666 -10.166 -24.999 -11.499c-11.333 0 -23 6 -35 18
c-9.33301 12.667 -14 26.334 -14 41.001c0 10.667 3.33301 19.667 10 27c12.667 16.667 36.334 34.667 71.001 54l81 48c22.667 17.333 34 35.666 34 54.999c-2 16 -13.667 29 -35 39s-46.666 15 -75.999 15c-40.667 0 -76.667 -8.33301 -108 -25l-18 -5
c-15.333 0 -23 7.66699 -23 23c0 8 4.66699 16.667 14 26z" />
    <glyph glyph-name="at" unicode="@" horiz-adv-x="572" 
d="M574 308c0 -42 -14.667 -86.0029 -44 -132.003c-26.667 -41.333 -60.334 -77 -101.001 -107c-8.66699 -6 -19 -9.66699 -31 -11c-25.333 0 -38 18.333 -38 55l3 40c-26.667 -34 -56 -61.333 -88 -82c-15.333 -10 -29.333 -15 -42 -15c-26 0 -39 18.667 -39 56
c0 5.33301 0.333008 11.833 1 19.5s2.5 19.167 5.5 34.5s14.833 36.333 35.5 63c30.667 40 65.334 67.333 104.001 82c9.33301 2.66699 15.666 4 18.999 4c6.66699 0 12.834 -2.16699 18.501 -6.5s12.5 -16.833 20.5 -37.5c1.33301 -6 -0.166992 -11.167 -4.5 -15.5
s-10.166 -6.5 -17.499 -6.5s-12.666 2.66699 -15.999 8l-9 18c-0.666992 -2 -1.66699 -3.33301 -3 -4c-25.333 -12 -51.333 -34.333 -78 -67c-14 -17.333 -23.667 -36 -29 -56l-5 -32c0 -10 2.66699 -15 8 -15l11 5c16.667 10 39 31.333 67 64
c23.333 26.667 45 56.334 65 89.001c2 4.66699 7.66699 7.33398 17 8.00098c8.66699 0 15 -1.66699 19 -5c4 -6.66699 5 -14.667 3 -24c-17.333 -55.333 -26 -96.666 -26 -123.999c0 -4.66699 0.166992 -8.66699 0.5 -12s1.5 -4.33301 3.5 -3
c34.667 26.667 64.667 59.334 90 98.001s38 75.667 38 111c0 36 -15.333 64.833 -46 86.5s-67 32.5 -109 32.5c-80 0 -151 -34 -213 -102c-28.667 -30.667 -49.5 -62.334 -62.5 -95.001s-19.5 -67.667 -19.5 -105c0 -24.667 3.83301 -46.667 11.5 -66s19.5 -38 35.5 -56
s33.333 -31.5 52 -40.5s39.334 -13.5 62.001 -13.5c42.667 0 79.5 3.5 110.5 10.5s58.5 18.5 82.5 34.5l11 4c6 0 11 -2.16699 15 -6.5s6.33301 -9.83301 7 -16.5c0 -6 -3 -11 -9 -15c-26.667 -18 -58.334 -31.333 -95.001 -40s-77.334 -13 -122.001 -13
c-55.333 0 -102.666 21.667 -141.999 65c-20 22.667 -35.167 46.334 -45.5 71.001s-15.5 52 -15.5 82c0 27.333 3.16699 53.166 9.5 77.499s17.166 50.5 32.499 78.5c29.333 53.333 69.666 97 120.999 131c55.333 38 113.333 57 174 57c52 0 97 -14 135 -42
c41.333 -31.333 62 -71 62 -119z" />
    <glyph glyph-name="A" unicode="A" horiz-adv-x="450" 
d="M122 171l137 254.002c4 14 13.333 22.333 28 25c13.333 0 24 -8.66699 32 -26c9.33301 -28 28.333 -110 57 -246h39c14.667 0 25.667 -0.666992 33 -2s11 -9 11 -23s-7.33301 -22.333 -22 -25l-53 -2l10 -50c8.66699 -46.667 13 -82.667 13 -108
c0 -12.667 -2.66699 -21.667 -8 -27c-4 -6 -10.333 -9 -19 -9c-14 0 -22 7 -24 21l-25 170l-178 -4l-91 -177c-6.66699 -10.667 -14.334 -16 -23.001 -16c-6 0 -12 3 -18 9c-3.33301 4.66699 -5.66602 10.667 -6.99902 18c0 5.33301 1.33301 10.666 4 15.999l75 146
c-16 4 -24 12 -24 24c0 9.33301 6 18.666 18 27.999zM283 356.002l-100 -182l70 1h69z" />
    <glyph glyph-name="B" unicode="B" horiz-adv-x="460" 
d="M130 379c-12 -2 -21.334 0.165039 -28.001 6.49805s-9 14.833 -7 25.5c2 16.667 18.667 27.334 50 32.001l82 4c64.667 0 116 -9.66699 154 -29c29.333 -14 44 -33 44 -57c0 -26.667 -19 -57 -57 -91c-9.33301 -8 -32.666 -24.667 -69.999 -50l30 1
c50.667 0 89 -13 115 -39c14.667 -16 22 -35.333 22 -58c0 -13.333 -3 -29.666 -9 -48.999c-14 -42 -48.833 -76.833 -104.5 -104.5s-111.167 -41.5 -166.5 -41.5c-42 0 -76.667 8.33301 -104 25c-13.333 8 -20 18 -20 30c0 8 4.33301 16.667 13 26zM186.999 393.998
l-28 -175.999c76 18 141.667 56.667 197 116c10 10 15 18 15 24c0 3.33301 -4 7.66602 -12 12.999c-28 10.667 -57.667 18 -89 22zM149.999 161.999l-24.001 -167.999c20.667 -8.66699 42 -13 64 -13c53.333 0 107 17 161 51c41.333 27.333 62 53.666 62 78.999
c0 7.33301 -1.33301 14 -4 20c-6 12.667 -17 23 -33 31c-15.333 6 -40.666 9 -75.999 9c-32 0 -82 -3 -150 -9z" />
    <glyph glyph-name="C" unicode="C" horiz-adv-x="416" 
d="M299 454c6.66699 12.667 15.6689 18.9971 27.002 18.9971l16 -2c7.33301 -1.33301 11 -12.333 11 -33c0 -11.333 -3 -27 -9 -47l4 -24l1 -26c0 -53.333 -14.667 -96.666 -44 -129.999c-4.66699 -4.66699 -11.667 -8 -21 -10c-17.333 0 -26 10.333 -26 31l2 13
c18 76 27 124.333 27 145c0 4 -1.33301 7.66699 -4 11c-4.66699 2 -11.334 1.33301 -20.001 -2c-33.333 -12 -65.666 -48 -96.999 -108c-14.667 -30 -25.667 -59.167 -33 -87.5s-11 -56.833 -11 -85.5c0 -41.333 10 -73.666 30 -96.999c17.333 -18.667 41 -28 71 -28
c30.667 0 62.167 9.5 94.5 28.5s55.833 42.5 70.5 70.5c5.33301 10 12.666 15 21.999 15c7.33301 0 14.666 -4 21.999 -12c3.33301 -3.33301 5 -8.33301 5 -15c0 -4.66699 -0.666992 -8 -2 -10c-14 -35.333 -42.833 -65.666 -86.5 -90.999s-87.167 -38 -130.5 -38
c-50.667 0 -87.667 15.667 -111 47c-26 34 -39 78 -39 132c0 56 12.167 112.5 36.5 169.5s51.833 98.833 82.5 125.5c15.333 13.333 30.333 23.333 45 30s30 10 46 10z" />
    <glyph glyph-name="D" unicode="D" horiz-adv-x="510" 
d="M162 386l-24 -1.99707h-11c-4.66699 0 -9 0.666992 -13 2c-13.333 3.33301 -20 12 -20 26s7.33301 22.333 22 25c28 6 76.333 9 145 9c72 0 126.833 -5.5 164.5 -16.5s67.5 -30.5 89.5 -58.5c19.333 -25.333 29 -54 29 -86c0 -24 -4.66699 -45.333 -14 -64
c-24 -56 -75.333 -111.333 -154 -166c-73.333 -51.333 -146 -85.333 -218 -102c-6.66699 -6.66699 -15.667 -11 -27 -13c-8.66699 0 -16 4 -22 12c-16 2 -28.833 8.66699 -38.5 20s-14.5 22.666 -14.5 33.999c0 5.33301 2 11.666 6 18.999c4 5.33301 9 8.66602 15 9.99902
c10 0 20.667 -7.66699 32 -23c0 56.667 5.33301 118 16 184c6.66699 42.667 19 106 37 190zM218 391.003l-28.001 -137.998c-4.66699 -25.333 -8.66699 -48.333 -12 -69s-6.33301 -41.5 -9 -62.5s-4.66699 -40.5 -6 -58.5s-2 -36 -2 -54c58.667 16 121.334 47 188.001 93
c55.333 39.333 93.333 75.666 114 108.999c17.333 27.333 26 52.666 26 75.999c0 30.667 -17 56 -51 76s-86.667 30 -158 30h-28z" />
    <glyph glyph-name="E" unicode="E" horiz-adv-x="420" 
d="M219 409l97.9961 19.002l48 6l34 1c17.333 -2 26 -10.333 26 -25s-8.66699 -23.334 -26 -26.001c-34 0 -67.667 -3.16699 -101 -9.5s-66.666 -14.5 -99.999 -24.5c-15.333 -62.667 -25.333 -108 -30 -136c72.667 13.333 154.334 36.666 245.001 69.999l11 2
c12 0 19 -6.66699 21 -20s-2.33301 -22.333 -13 -27c-36.667 -15.333 -84 -31.333 -142 -48l-69 -18l-63 -13c-8 -63.333 -12 -109.666 -12 -138.999c0 -21.333 10.667 -32 32 -32c56 7.33301 117.333 30.666 184 69.999l13 4c10.667 0 18.334 -6.33301 23.001 -19
c4 -12 -0.333008 -22.667 -13 -32c-24 -16 -57.5 -32.167 -100.5 -48.5s-81.167 -24.5 -114.5 -24.5c-26 0 -45 5.66699 -57 17s-18 34.666 -18 69.999c0 30 3.66699 71 11 123c-20 4 -29 14.333 -27 31c2 10 14 18.667 36 26c4 34 12 77 24 129
c-7.33301 -1.33301 -13.166 0 -17.499 4s-6.5 11 -6.5 21c2 10.667 17.667 21.334 47 32.001c3.33301 17.333 8.33301 36.333 15 57c4 12.667 13.667 19 29 19c14.667 0 22 -7.33301 22 -22l-3 -16z" />
    <glyph glyph-name="F" unicode="F" horiz-adv-x="440" 
d="M274 422l101 19.0029l70 10c32.667 0 49 -10.333 49 -31c0 -6.66699 -1.66699 -13 -5 -19c-6 -14 -18.667 -21 -38 -21c-12 0 -20.333 5.33301 -25 16c-66 -10 -122 -22.333 -168 -37l-33 -136l41 3c11.333 1.33301 20.833 2.66602 28.5 3.99902
s17.5 3.66602 29.5 6.99902c46 8 83.333 17.333 112 28l7 1c10.667 0 18.334 -6.66699 23.001 -20c3.33301 -14 -1.33398 -24 -14.001 -30c-18 -8.66699 -55.667 -19 -113 -31l-71 -13l-54 -5l-24 -133l3 -8c2 -4 3 -10 3 -18l-2 -22c-2 -12.667 -6.5 -22.334 -13.5 -29.001
s-15.833 -10 -26.5 -10c-15.333 2 -23 14.667 -23 38c0 10.667 2.33301 30.834 7 60.501s12 68.167 22 115.5l-49 -1l-11 -3c-8 0 -14.333 2.16699 -19 6.5s-8 10.833 -10 19.5c0 10 7 18 21 24l31 4l46 1l34 130l-14 -1c-12.667 0 -22.334 5.33301 -29.001 16l-3 13
c0 7.33301 6 14.666 18 21.999l41 10c8 28 19.667 42 35 42c12.667 0 20.334 -7.33301 23.001 -22z" />
    <glyph glyph-name="G" unicode="G" horiz-adv-x="450" 
d="M385 199c19.333 -13.333 28.998 -34.668 28.998 -64.001c0 -31.333 -9.66699 -59.666 -29 -84.999c-22 -30 -52.5 -54.167 -91.5 -72.5s-75.5 -27.5 -109.5 -27.5c-46 0 -79.167 14.667 -99.5 44s-30.5 65.666 -30.5 108.999c0 68 23.333 138.667 70 212
c50 78 116.333 140.333 199 187c12 5.33301 23.667 8.66602 35 9.99902c11.333 0 20.333 -2.83301 27 -8.5s11.667 -14.167 15 -25.5c0.666992 -10 -1.66602 -18.667 -6.99902 -26c-5.33301 -5.33301 -13.333 -9 -24 -11c-8.66699 0 -16.667 3.66699 -24 11
c-56 -26 -107.667 -71.667 -155 -137c-26 -36 -46.167 -70.667 -60.5 -104s-21.5 -66.666 -21.5 -99.999c0 -20 1.33301 -36 4 -48s8 -23 16 -33c16 -17.333 37.333 -26 64 -26c28.667 0 58.5 9.16699 89.5 27.5s55.167 41.833 72.5 70.5c4 6 6 14.333 6 25
c0 14.667 -4.16699 26.834 -12.5 36.501s-23.166 14.5 -44.499 14.5c-17.333 0 -37 -3.33301 -59 -10l-11 -2c-8 0 -14.167 2.33301 -18.5 7s-7.5 11.667 -9.5 21c0 10.667 9 21 27 31c8 3.33301 17.5 6.33301 28.5 9s21.167 4 30.5 4l22 -3l71 21c11.333 2.66699 24 5 38 7
s26.667 3 38 3c16.667 0 25 -7.33301 25 -22c0 -12 -6.66699 -21.333 -20 -28l-13 -4l-25 -5z" />
    <glyph glyph-name="H" unicode="H" horiz-adv-x="470" 
d="M137 214l41.999 221.001c2 12 10.333 18 25 18c14 0 22 -8.33301 24 -25l-2 -33c0 -8.66699 -0.666992 -16.334 -2 -23.001c-3.33301 -12.667 -5.66602 -22.334 -6.99902 -29.001l-25 -117c22.667 2 49.667 7.33301 81 16l102 24l15 198c2 17.333 12 26 30 26
c16.667 0 25 -8 25 -24l-4 -55c0 -12 -1 -27.667 -3 -47s-5.33301 -48 -10 -86c11.333 4 21.333 6 30 6c16 0 25 -6.66699 27 -20c0 -9.33301 -4 -17.666 -12 -24.999c-6.66699 -4 -23 -9.66699 -49 -17v-16v-13v-12c0 -12.667 -0.333008 -25.667 -1 -39s-2 -26 -4 -38
c0 -16 -1.16699 -33.167 -3.5 -51.5s-5.83301 -39.833 -10.5 -64.5c-2 -18 -13 -27 -33 -27c-20.667 0 -31 13.333 -31 40c2 20 6 33 12 39s9 12 9 18l9 154l-190 -42l-23 -108l-4 -39c0 -4.66699 1.66699 -11.334 5 -20.001l3 -11l2 -16c-3.33301 -22 -14.333 -33 -33 -33
c-16 0 -26.333 10.667 -31 32c-2.66699 12 6 73 26 183l-15 -2c-18.667 0 -28 7 -28 21c0 10 4 17.667 12 23c4 2 9.33301 4 16 6c14 4.66699 22.667 7.33398 26 8.00098z" />
    <glyph glyph-name="I" unicode="I" 
d="M177 385l-45.999 -7.00195l-32 -2c-16 0 -24 8 -24 24s8.33301 25.333 25 28c34 0 67.667 2.66699 101 8c18 2.66699 46.333 8.66699 85 18l6 1h5c14 0 21 -8 21 -24c0 -10 -2.83301 -17 -8.5 -21s-31.834 -10 -78.501 -18c0 -21.333 -1.5 -42 -4.5 -62l-8 -52.5
c-2.33301 -15 -5.83301 -32.833 -10.5 -53.5l-43 -211l71 15c6.66699 0 11.834 -2.66699 15.501 -8s5.5 -11.666 5.5 -18.999c0 -10 -5 -17.667 -15 -23c-40.667 -12 -106.334 -25 -197.001 -39c-6.66699 -0.666992 -12 1.33301 -16 6s-7 12 -9 22
c0 10.667 5.33301 18.334 16 23.001l74 14l39 193l16 84c8 44 12 78.667 12 104z" />
    <glyph glyph-name="J" unicode="J" horiz-adv-x="400" 
d="M318 401l-81.002 -14l-45 -5c-14.667 0 -22 8.66699 -22 26c0 14 8 22.667 24 26c10 0 20.167 0.333008 30.5 1s20.833 2 31.5 4c19.333 4 39 9 59 15c3.33301 16.667 13.333 25 30 25c10 0 18 -6 24 -18l106 25c8 0.666992 14.667 -0.833008 20 -4.5
s8.33301 -9.5 9 -17.5c0 -12 -5.66699 -21 -17 -27c-3.33301 -2 -42 -11.667 -116 -29c0 -68.667 -5 -132.5 -15 -191.5s-24.333 -112.833 -43 -161.5c-32 -88 -77.333 -142 -136 -162c-9.33301 -2.66699 -17.166 -4.66699 -23.499 -6s-13.166 -2 -20.499 -2
c-63.333 0 -95 52 -95 156l1 45c0 11.333 2.33301 27.333 7 48c2 12.667 10.333 19 25 19c8 0 14.5 -2.33301 19.5 -7s7.5 -11.334 7.5 -20.001l-5 -40l-2 -37c0 -34.667 4.5 -62.167 13.5 -82.5s21.833 -30.5 38.5 -30.5l16 3c48 18 86.5 66.333 115.5 145
s43.5 184.334 43.5 317.001z" />
    <glyph glyph-name="K" unicode="K" horiz-adv-x="426" 
d="M195 265c40.667 22 84.332 55.999 130.999 101.999c40.667 40.667 68.334 78.667 83.001 114c4 10 11.667 15 23 15c8.66699 0 15.667 -2.66699 21 -8c6 -4 8 -11 6 -21c-8 -38 -45 -88.667 -111 -152c-51.333 -46 -106 -86.667 -164 -122
c34 -13.333 65.5 -28.166 94.5 -44.499s56.667 -35 83 -56s46.5 -39.833 60.5 -56.5s21 -32 21 -46c0 -8.66699 -2.33301 -15.834 -7 -21.501s-11 -9.16699 -19 -10.5c-6 0 -11.667 2.66699 -17 8l-8 10l-6 11l-3 11c-22 26 -52.167 52 -90.5 78s-77.5 46.667 -117.5 62
l-12 -83l-16 -100c-3.33301 -11.333 -11.333 -17 -24 -17c-18 0 -27 9 -27 27l30 203c-10 4 -15 12 -15 24c0 14.667 8.66699 26.334 26 35.001c6.66699 47.333 19.667 122 39 224c2 14 11 21 27 21c18 0 26 -9.33301 24 -28l-5 -39c-1.33301 -10 -5 -29 -11 -57z" />
    <glyph glyph-name="L" unicode="L" horiz-adv-x="392" 
d="M133 18c52.667 0 97.833 2.66602 135.5 7.99902s73.5 14.333 107.5 27l9 2c10 0 18 -6 24 -18l3 -12c0 -4.66699 -3 -10 -9 -16c-15.333 -11.333 -55.333 -22.666 -120 -33.999c-10 -1.33301 -24.167 -3 -42.5 -5s-33.166 -3 -44.499 -3l-88 -2c-24 0 -36 14.667 -36 44
l1 15l38 179c20 96 30 166.667 30 212c0 15.333 9 23 27 23c16.667 0 25 -7 25 -21c0 -26.667 -2 -55.334 -6 -86.001s-6.83301 -51.5 -8.5 -62.5s-5.83398 -31.833 -12.501 -62.5l-18 -86l-7 -35.5c-2 -10.333 -6.33301 -27.166 -13 -50.499c0 -10 1.66699 -15.333 5 -16z
" />
    <glyph glyph-name="M" unicode="M" horiz-adv-x="560" 
d="M185 307c-58 -188.667 -102.667 -302.998 -134 -342.998c-2 -4 -6.66699 -6.33301 -14 -7c-5.33301 0 -12 3 -20 9c-6.66699 6.66699 -10 14 -10 22c0 6 2 12 6 18c24 36 55.667 111.667 95 227l74 230c4 14.667 13.667 22 29 22c16 0 24 -7 24 -21l-1 -49
c0 -104.667 11.333 -200 34 -286c2 -6 4.66699 -9.33301 8 -10l5 3l5 6l44 93l45 96c41.333 92.667 64.666 143 69.999 151c8.66699 12.667 19 19 31 19c14.667 0 22 -6 22 -18c0 -28 0.833008 -62.833 2.5 -104.5s2.5 -65.5 2.5 -71.5c0 -24 1 -45 3 -63s5.5 -46 10.5 -84
s12.833 -73 23.5 -105l10 -4c6 0 10.333 -2.66699 13 -8l3 -15c0 -8.66699 -3.66699 -16 -11 -22s-15.666 -8 -24.999 -6c-28 8 -48 43.667 -60 107c-2 10.667 -4 24.167 -6 40.5s-4.66699 40.5 -8 72.5c0 19.333 -0.833008 47.666 -2.5 84.999s-2.5 61 -2.5 71
c-60 -150.667 -110.333 -250.334 -151 -299.001c-8 -10 -18 -15 -30 -15c-14 0 -25.333 7.33301 -34 22c-24 49.333 -41 128.333 -51 237z" />
    <glyph glyph-name="N" unicode="N" horiz-adv-x="460" 
d="M184 351l80.999 -161c34.667 -66 62 -113.667 82 -143c1.33301 -3.33301 4.33301 -6 9 -8l4 4l5 10c15.333 46 34.5 113.833 57.5 203.5s38.833 163.834 47.5 222.501c2 14 11 21 27 21c17.333 0 26 -9 26 -27c0 -14.667 -4.33301 -40.334 -13 -77.001
c-3.33301 -16.667 -8 -37.167 -14 -61.5l-23 -89.5c-33.333 -135.333 -59.666 -220.333 -78.999 -255c-8 -16 -19.333 -24 -34 -24c-8.66699 0 -15.667 2.66699 -21 8c-24 20 -56 67.333 -96 142l-80 158c-36 -146 -65 -251 -87 -315c-3.33301 -9.33301 -10 -14 -20 -14
c-7.33301 0 -13.333 2.16699 -18 6.5s-8 11.833 -10 22.5l2 11l54 189l43 167c-6 10 -9 19.333 -9 28c0 6 2.66699 11.333 8 16l30 23c2 2 5 3 9 3c12.667 0 21 -5 25 -15l1 -12c0 -10.667 -2.33301 -21.667 -7 -33z" />
    <glyph glyph-name="O" unicode="O" horiz-adv-x="480" 
d="M157 395c53.333 42 105.667 63 157 63c38.667 0 76 -14 112 -42c46 -37.333 69 -90.333 69 -159c0 -52.667 -17 -107 -51 -163c-28 -44.667 -63.667 -80.334 -107 -107.001c-40 -24 -80.333 -36 -121 -36c-28.667 0 -56 7 -82 21c-48.667 28.667 -73 73 -73 133
c0 58.667 22.667 137.334 68 236.001l9 30c0 6 6.33301 14 19 24zM183.001 331c-45.333 -86.667 -68.001 -159 -68.001 -217c0 -56 20 -90.667 60 -104c14 -4 28.667 -6 44 -6c54 0 108.333 31.333 163 94c40 46 60 97 60 153c0 40 -10.667 74 -32 102
s-49.666 45 -84.999 51l-14 1c-32.667 0 -67.667 -13.333 -105 -40l-10 -20z" />
    <glyph glyph-name="P" unicode="P" horiz-adv-x="400" 
d="M131 383l-32 -11.998c-10 -2 -18.167 0 -24.5 6s-9.5 13.333 -9.5 22c0 6 3 11 9 15c71.333 30 142.333 45 213 45c59.333 0 103 -11 131 -33s42 -49.333 42 -82c0 -36 -15.333 -68 -46 -96s-72.667 -56 -126 -84c-44.667 -22.667 -93.667 -41.334 -147 -56.001l-26 -193
c-2 -15.333 -11 -23 -27 -23s-24 8.33301 -24 25c0 17.333 7.33301 77.333 22 180c-15.333 0 -26.333 2.33301 -33 7c-5.33301 5.33301 -8 12.666 -8 21.999c0 6 5 11.667 15 17l36 9zM179 393.002c2 -2 3.66895 -7.33398 5.00195 -16.001l-2 -17l-31 -197
c50 14 101 37 153 69c49.333 29.333 78.333 52.5 87 69.5s13 31.5 13 43.5c0 26.667 -19.667 45.334 -59 56.001c-14.667 3.33301 -33.334 5 -56.001 5c-32.667 0 -69.334 -4.33301 -110.001 -13z" />
    <glyph glyph-name="Q" unicode="Q" horiz-adv-x="510" 
d="M387 41c-70.667 -55.333 -131 -83.001 -181 -83.001c-30.667 0 -59.334 8.66699 -86.001 26c-31.333 19.333 -47 60 -47 122c0 84 31 165 93 243c24 30 50.5 52 79.5 66s61.833 21 98.5 21c7.33301 0 11 -6.33301 11 -19c46 -8 83.333 -28.333 112 -61
s43 -69.667 43 -111c0 -57.333 -25.333 -110.333 -76 -159l12 -70c2 -11.333 4.16699 -21.833 6.5 -31.5s5.83301 -21.167 10.5 -34.5c2 -5.33301 5 -9.66602 9 -12.999l8 -5l4 -13c0 -10 -6 -19 -18 -27l-15 -4c-5.33301 0 -12.666 3 -21.999 9c-10 8 -24 56 -42 144z
M377 105.999l-12.999 88c2 16.667 11.333 25 28 25c14 0 22.333 -6.33301 25 -19l6 -44c22.667 30.667 34 60.334 34 89.001c0 37.333 -16.667 68.666 -50 93.999c-14 11.333 -30.667 20 -50 26c-9.33301 2.66699 -18.333 4.66699 -27 6s-18.667 2 -30 2l-25 -3
c-41.333 -20 -76.5 -57.667 -105.5 -113s-43.5 -107 -43.5 -155c0 -32 7.66699 -55.333 23 -70c8.66699 -6.66699 17.667 -11.667 27 -15s19.666 -5 30.999 -5c50 0 106.667 31.333 170 94z" />
    <glyph glyph-name="R" unicode="R" horiz-adv-x="520" 
d="M133 443l59.999 4l31 1l78 -3c12 0 23 -0.833008 33 -2.5s23.667 -4.5 41 -8.5c47.333 -10 84 -24 110 -42c16 -12 24 -30 24 -54l-3 -24c-2 -6.66699 -5.66699 -13 -11 -19c-46 -54 -123.667 -93.333 -233 -118c-9.33301 -2 -15 -4.33301 -17 -7l13 -6
c65.333 -14 123.333 -34.833 174 -62.5s76 -53.167 76 -76.5c0 -10 -6.33301 -17.333 -19 -22l-12 -2c-5.33301 0 -11.666 3 -18.999 9c-23.333 26 -54.666 48 -93.999 66c-44 20 -110 40 -198 60l-41 -188c-3.33301 -12.667 -12.333 -19 -27 -19
c-17.333 0 -26 8.33301 -26 25c0 19.333 2.66699 44.5 8 75.5s9.5 53.667 12.5 68s8.83301 38.833 17.5 73.5l54 225c-10.667 0 -21.334 -1.66699 -32.001 -5l-20 -3c-10.667 2 -16 9.33301 -16 22c0 18 12 29 36 33zM218.999 397l-37.998 -189.999
c131.333 31.333 218.333 67.333 261 108c10 9.33301 15 17 15 23c0 8 -9 16 -27 24c-24.667 9.33301 -55.334 17.666 -92.001 24.999c-14.667 2.66699 -32.834 5 -54.501 7s-43.167 3 -64.5 3z" />
    <glyph glyph-name="S" unicode="S" horiz-adv-x="430" 
d="M365 393c-21.333 -2 -40.3311 -5.33105 -56.998 -9.99805s-36 -11.667 -58 -21c-38 -16 -64.667 -34.667 -80 -56l-5 -16c0 -8 4.66699 -14.333 14 -19c98.667 -40 173.334 -79.333 224.001 -118c19.333 -14 29 -32.333 29 -55c0 -16 -5 -30 -15 -42
c-22.667 -26.667 -60.334 -51.334 -113.001 -74.001c-11.333 -4.66699 -23 -8.83398 -35 -12.501s-24.5 -7 -37.5 -10s-24.667 -5.16699 -35 -6.5s-22.5 -2 -36.5 -2c-46.667 0 -80.334 12.333 -101.001 37c-5.33301 7.33301 -8 20.666 -8 39.999
c0 18.667 2.83301 32 8.5 40s12.834 12.333 21.501 13c8 0 15 -3 21 -9s9 -13 9 -21l-4 -9l-4 -9c-4 -20 11.667 -30 47 -30c9.33301 0 19 0.333008 29 1s21.167 2.16699 33.5 4.5s21.166 4.33301 26.499 6s16.666 5.83398 33.999 12.501
c36.667 13.333 68.334 31.333 95.001 54c5.33301 4 9 10 11 18c0 6 -4.33301 12 -13 18c-28 20 -64.667 40.333 -110 61l-118 57c-9.33301 5.33301 -16.333 12.333 -21 21s-7 19 -7 31c0 19.333 3.66699 34 11 44c25.333 35.333 68.333 64.333 129 87
c48 18 93.667 27 137 27c32 0 48 -12 48 -36c0 -7.33301 -1.66699 -14 -5 -20c-6.66699 -10.667 -16.334 -16 -29.001 -16c-16 0 -24.667 5 -26 15l-3 4z" />
    <glyph glyph-name="T" unicode="T" horiz-adv-x="320" 
d="M271 437l51.999 9.00098c21.333 4 37 6 47 6c20 0 30 -7.33301 30 -22c0 -14 -6.33301 -23.333 -19 -28l-120 -19l-39 -246l-28 -158c-3.33301 -14.667 -12.666 -22 -27.999 -22c-7.33301 0 -13.5 2.16699 -18.5 6.5s-7.5 11.166 -7.5 20.499l66 392l-97 -16
c-16.667 2 -25 11.333 -25 28c0 13.333 6 22 18 26l113 14l7 35c2 12.667 11.667 19 29 19c14 0 22 -5 24 -15v-11c-2 -8.66699 -3.33301 -15 -4 -19z" />
    <glyph glyph-name="U" unicode="U" horiz-adv-x="480" 
d="M361 122c-32 -52 -68.332 -96.3291 -108.999 -132.996s-76.334 -55 -107.001 -55c-12.667 0 -22.667 2.66699 -30 8c-22 13.333 -33 42 -33 86c0 13.333 0.666992 26.166 2 38.499s4.16602 28.333 8.49902 48s10.166 42.5 17.499 68.5s17 58 29 96l45 142
c2 9.33301 9.66699 14 23 14c8 0 14.333 -1.83301 19 -5.5s7.66699 -10.167 9 -19.5l-31 -106l-22 -65l-20 -73l-15 -63c-3.33301 -16.667 -6 -33.5 -8 -50.5s-3 -31.833 -3 -44.5s4 -20 12 -22c6.66699 1.33301 10.667 2.66602 12 3.99902c50.667 26 97.667 71.333 141 136
c22 32.667 40.5 66.334 55.5 101.001s27.167 72 36.5 112l3 43c0 15.333 4.83301 29 14.5 41s19.834 18 30.501 18c7.33301 0 13.833 -2.83301 19.5 -8.5s8.5 -13.834 8.5 -24.501l-31 -108c-17.333 -70.667 -26 -147.334 -26 -230.001v-33c0 -14 0.666992 -25.333 2 -34
c0 -6.66699 -2.66699 -13.334 -8 -20.001s-12.666 -11 -21.999 -13c-11.333 0 -18.333 7.33301 -21 22l-4 53l1 37z" />
    <glyph glyph-name="V" unicode="V" horiz-adv-x="430" 
d="M198 3c48.667 69.333 97.0029 151.666 145.003 246.999c20.667 43.333 36.167 78.833 46.5 106.5s15.5 46.834 15.5 57.501c-2 19.333 6.33301 29 25 29c14.667 0 24 -7 28 -21c6 -30 -20.667 -104 -80 -222s-116.666 -207.667 -171.999 -269
c-8.66699 -8.66699 -18.334 -13 -29.001 -13c-18.667 0 -31.334 11.667 -38.001 35c-4.66699 22.667 -13 95.834 -25 219.501s-20.667 195.167 -26 214.5c0 5.33301 2 10.666 6 15.999c3.33301 2.66699 9.66602 5 18.999 7c14 0 22.333 -6.33301 25 -19l10 -62l13 -118
c9.33301 -108 16.666 -175.667 21.999 -203c0 -6.66699 2 -11 6 -13c4.66699 2 7.66699 4.66699 9 8z" />
    <glyph glyph-name="W" unicode="W" horiz-adv-x="600" 
d="M173 412c2 -6 2.99902 -17.6699 2.99902 -35.0029l-7 -74l-2 -70l-3 -79l-5 -79c0 -38 3 -57 9 -57l6 3l10 8c18.667 18.667 44.334 62.334 77.001 131.001c22 48 43.667 101.667 65 161c4 14 13.667 21 29 21c8 0 15.667 -2.66699 23 -8c7.33301 -4 11.333 -10 12 -18
l12 -153c0 -26 1.33301 -46 4 -60l12 -58c2 -8 4.66699 -12 8 -12c2 1.33301 4 2.83301 6 4.5s5.33301 5.16699 10 10.5c30.667 44.667 85.667 174.334 165 389.001c4 10.667 12 16 24 16c7.33301 0 14.333 -3 21 -9s9 -13.333 7 -22l-81 -213
c-44.667 -110 -81.334 -181 -110.001 -213c-11.333 -13.333 -25.666 -20 -42.999 -20c-22.667 0 -39 12 -49 36c-9.33301 30.667 -17.333 62.667 -24 96s-10 70 -10 110c-10 -40 -28.667 -84.167 -56 -132.5s-52.333 -83.5 -75 -105.5
c-11.333 -11.333 -24.666 -17 -39.999 -17c-12 0 -24.667 4 -38 12c-8.66699 6.66699 -15.334 16.334 -20.001 29.001c-4 20 -6 47.667 -6 83l1 70c0 16.667 2.33301 45.667 7 87l9 130c0 4 -2.33301 9.66699 -7 17l-9 22c0 11.333 7 19 21 23l6 1h5
c17.333 0 28.333 -8.33301 33 -25z" />
    <glyph glyph-name="X" unicode="X" horiz-adv-x="380" 
d="M228 237l117 194c4 8 11.333 12.333 22 13c7.33301 0 15 -4 23 -12c3.33301 -4.66699 5 -9.66699 5 -15c0 -4.66699 -0.666992 -7.66699 -2 -9c-39.333 -70 -85.333 -143.333 -138 -220c12 -21.333 27.167 -45.666 45.5 -72.999l70.5 -102l9 -5c4 0 7 -1.66699 9 -5
l6 -15c0 -8 -4 -15 -12 -21s-15.333 -8 -22 -6c-16 6 -38.333 28.333 -67 67l-73 113l-120 -177c0 -4 -4.33301 -11.333 -13 -22c-4.66699 -2.66699 -11.667 -5.33398 -21 -8.00098c-15.333 0 -23 9 -23 27c0 4.66699 0.666992 8.33398 2 11.001
c9.33301 25.333 57.666 97.666 144.999 216.999l-68 137c-8.66699 18.667 -15.667 34.5 -21 47.5s-10 25.5 -14 37.5c-2 9.33301 -0.166992 16.833 5.5 22.5s12.834 8.5 21.501 8.5c11.333 0 20 -6.33301 26 -19c0.666992 -4.66699 2 -9.66699 4 -15s4.33301 -11 7 -17
l18 -37l22 -46z" />
    <glyph glyph-name="Y" unicode="Y" horiz-adv-x="360" 
d="M228 135l41 100.999l53 122l59 136c5.33301 11.333 14 17 26 17c7.33301 0 13.833 -2.5 19.5 -7.5s8.16699 -11.5 7.5 -19.5l-177 -410l9 -13c4 -6 6 -12 6 -18c0 -3.33301 -3 -8.66602 -9 -15.999c-4 -2.66699 -11.333 -5 -22 -7l-8 1l-47 -111
c-18 -41.333 -32.333 -71.333 -43 -90c-4 -8 -11.333 -12 -22 -12c-5.33301 0 -11.666 2 -18.999 6c-4.66699 4 -7.66699 10 -9 18l2 9c22.667 47.333 56 123 100 227l-49.5 129c-13.667 35.333 -22.834 58 -27.501 68c-22 51.333 -40.333 86 -55 104c-2 2 -3 5 -3 9
c0 10 5.33301 18.333 16 25l14 4c4 0 9.66699 -2.66699 17 -8c14.667 -14.667 34 -49.667 58 -105z" />
    <glyph glyph-name="Z" unicode="Z" horiz-adv-x="380" 
d="M299 370l-120.001 -16.001l-75 -5c-18 0 -27 8 -27 24s8 25 24 27c52 0 100 3 144 9c10.667 1.33301 22.667 3.33301 36 6s28 6 44 10l12 1c14 0 24.667 -5.66699 32 -17l4 -15c0 -7.33301 -2.33301 -13.666 -7 -18.999l-254 -347l-3 -7l12 -3l226 27l12 8l14 6
c20.667 0 31 -8.66699 31 -26c0 -14 -8.66699 -24.333 -26 -31s-70.666 -15 -159.999 -25l-149 -18c-9.33301 -1.33301 -17.166 0.666992 -23.499 6s-10.5 13.666 -12.5 24.999c0 10.667 3.33301 20.667 10 30c69.333 104.667 154.666 221.334 255.999 350.001z" />
    <glyph glyph-name="bracketleft" unicode="[" horiz-adv-x="275" 
d="M292 483l-35.001 -10.001c-24.667 -56.667 -54.5 -146 -89.5 -268s-52.5 -208.667 -52.5 -260c0 -15.333 8.33301 -24 25 -26c16.667 0 25 -5.66699 25 -17c0 -5.33301 -2.33301 -10.166 -7 -14.499s-11.334 -7.16602 -20.001 -8.49902c-25.333 0 -43 8 -53 24
c-4.66699 9.33301 -7 28 -7 56c0 37.333 15.333 114.666 46 231.999s61 209 91 275c-3.33301 2 -5.66602 6 -6.99902 12c0 9.33301 7.33301 18 22 26c7.33301 10.667 16 16 26 16c4 0 7.66699 -1.33301 11 -4l25 7c6 1.33301 11.333 0 16 -4
c4.66699 -2.66699 7.33398 -7.33398 8.00098 -14.001c0 -9.33301 -8 -16.666 -24 -21.999z" />
    <glyph glyph-name="backslash" unicode="\" horiz-adv-x="269" 
d="M270 -38l1.00195 -6.99805c0 -12 -7 -18 -21 -18c-11.333 0 -19 5 -23 15c-22.667 74.667 -53.334 159.5 -92.001 254.5s-72 167.5 -100 217.5c-7.33301 2 -13 7.33301 -17 16c-2 1.33301 -3.66699 4.66602 -5 9.99902c0 10 5.33301 17.333 16 22
c5.33301 3.33301 10.666 5.66602 15.999 6.99902c6 0 14.333 -7.66699 25 -23c16 -26 47.333 -95 94 -207s82 -207.667 106 -287z" />
    <glyph glyph-name="bracketright" unicode="]" horiz-adv-x="274" 
d="M239 437c0 -25.333 -1.66602 -55.166 -4.99902 -89.499s-9.33301 -75.166 -18 -122.499c-20 -115.333 -46.667 -212 -80 -290c4 -2.66699 6.33301 -7.33398 7 -14.001c0 -10 -6.66699 -18 -20 -24c-6.66699 -10.667 -15 -16 -25 -16c-4 0 -7.66699 1.33301 -11 4l-24 -7
c-6.66699 -1.33301 -12.334 -0.166016 -17.001 3.50098s-7.66699 8.83398 -9 15.501c0 10 7.33301 17 22 21l35 10c34 82 59.667 161.333 77 238c20 89.333 30 179.666 30 270.999c0 10 -2.16699 19.667 -6.5 29s-13.333 13.166 -27 11.499s-20.5 3.16602 -20.5 14.499
c0 6 2.16699 11.333 6.5 16s10.5 7.66699 18.5 9c44.667 0 67 -26.667 67 -80z" />
    <glyph glyph-name="asciicircum" unicode="^" horiz-adv-x="252" 
d="M36 348l85 57c4.66699 3.33301 13 6 25 8c6 0 12.667 -2.33301 20 -7l71 -57c4 -4 6 -8.66699 6 -14c0 -6.66699 -3.33301 -13.334 -10 -20.001c-2 -2 -5.33301 -3.66699 -10 -5l-11 5l-60 47l-11 4l-11 -4l-70 -47l-11 -4c-3.33301 0 -8 2 -14 6c-4 4 -6 9.66699 -6 17
c0 4.66699 2.33301 9.33398 7 14.001z" />
    <glyph glyph-name="underscore" unicode="_" horiz-adv-x="402" 
d="M400 -96h-241l-159 -1c-12.667 0 -19 6.33301 -19 19s6.33301 19 19 19h112l287 1c12.667 0 19 -6.33301 19 -19s-6 -19 -18 -19z" />
    <glyph glyph-name="grave" unicode="`" horiz-adv-x="201" 
d="M33 383l100 -72l13 -4c10 0 17 5.66699 21 17l2 10c0 4.66699 -2.33301 9.33398 -7 14.001l-54 37l-50 33l-12 4c-8 0 -14.333 -5.33301 -19 -16c-2 -8.66699 0 -16.334 6 -23.001z" />
    <glyph glyph-name="a" unicode="a" horiz-adv-x="348" 
d="M269 66c-70.667 -55.333 -132.001 -83.002 -184.001 -83.002c-20.667 0 -37 5.66699 -49 17c-11.333 12.667 -17 27.334 -17 44.001c0 23.333 9.66699 47 29 71c16.667 21.333 43 45.333 79 72c17.333 12.667 33.5 23.5 48.5 32.5s28.833 15.833 41.5 20.5l18 4l18 4
c12 0 22.667 -4.66699 32 -14c30 -30 45 -61 45 -93c0 -7.33301 -0.666992 -12.666 -2 -15.999l6 -53l3 -32c2 -7.33301 4.83301 -12.5 8.5 -15.5s5.83398 -7.5 6.50098 -13.5c0 -6 -3.5 -12.167 -10.5 -18.5s-14.5 -8.5 -22.5 -6.5c-12 4 -21.667 14 -29 30l-5 39
c0 8.66699 -2 14 -6 16zM237.999 190.998c-30 -10 -65.499 -32.5 -106.499 -67.5s-61.5 -60.5 -61.5 -76.5c0 -6 5.33301 -9.33301 16 -10c47.333 0 108.666 33 183.999 99c2 2 3.66699 6 5 12l-3 13l-16 27c-1.33301 2 -4.33301 3.66699 -9 5z" />
    <glyph glyph-name="b" unicode="b" horiz-adv-x="284" 
d="M134 230c15.333 6.66699 30.168 11.998 44.501 15.998s28.166 6 41.499 6c24.667 0 43.667 -5.66699 57 -17s20 -27 20 -47c0 -52 -35.667 -112.667 -107 -182c-24.667 -22.667 -50.667 -34 -78 -34c-20 0 -36.333 6.33301 -49 19c-14.667 16.667 -22 39 -22 67l3 37
c4.66699 28.667 10 58.334 16 89.001s13.333 61 22 91c17.333 66 37 129.333 59 190c2 7.33301 8.66699 12 20 14c8 0 15.167 -3.16699 21.5 -9.5s8.83301 -13.5 7.5 -21.5c-16.667 -49.333 -37.667 -120.666 -63 -213.999l1 -5zM107.002 149.998
c-9.33301 -41.333 -14 -71.6689 -14 -91.002c0 -23.333 6 -35 18 -35c4.66699 0 9.66699 1.33301 15 4c28 14.667 55.167 39.834 81.5 75.501s39.5 62.834 39.5 81.501c0 10.667 -9 16 -27 16c-28 0 -61 -11 -99 -33c-5.33301 -2.66699 -10 -8.66699 -14 -18z" />
    <glyph glyph-name="c" unicode="c" horiz-adv-x="310" 
d="M247 210c-102.667 -60.667 -154 -110.667 -154 -150c0 -20 12 -30 36 -30c31.333 0 78.666 13.667 141.999 41l13 3c12 0 20.333 -6.66699 25 -20c3.33301 -12 -2 -22 -16 -30c-64.667 -30.667 -118 -46 -160 -46c-32 0 -56.667 8.66699 -74 26
c-13.333 13.333 -20 31.333 -20 54c0 22 7 43.667 21 65c24 34 54 63.667 90 89s71.667 44 107 56l13 2c18.667 0 31.334 -10.667 38.001 -32c2 -8 -0.166992 -15.833 -6.5 -23.5s-13.5 -11.5 -21.5 -11.5c-5.33301 0 -10.333 2.33301 -15 7c-4 4 -10 4 -18 0z" />
    <glyph glyph-name="d" unicode="d" horiz-adv-x="382" 
d="M318 248c33.333 108.667 57.998 173 73.998 193c3.33301 5.33301 10.333 9 21 11c8.66699 0 15.667 -3.66699 21 -11l4 -13l-2 -11c-35.333 -71.333 -76.666 -207.666 -123.999 -408.999c-2 -12 -10.667 -18 -26 -18c-14 0 -22.333 7.33301 -25 22
c-1.33301 9.33301 0 23 4 41c-34 -25.333 -66.333 -46 -97 -62c-28 -14 -51.333 -21 -70 -21c-21.333 0 -38.166 6.66699 -50.499 20s-18.5 29.333 -18.5 48c0 12.667 3.33301 25.667 10 39c20 39.333 55.667 78.666 107 117.999s97 59 137 59c11.333 0 23 -2 35 -6z
M278.998 203c-19.333 0 -40.001 -6.66797 -62.001 -20.001c-21.333 -11.333 -45 -29.666 -71 -54.999c-43.333 -41.333 -65 -73 -65 -95c0 -6 3.66699 -9.33301 11 -10l9 1c54.667 14 115.334 53.333 182.001 118c2.66699 2.66699 7 14.667 13 36l1 10c0 10 -6 15 -18 15z
" />
    <glyph glyph-name="e" unicode="e" horiz-adv-x="301" 
d="M100 37c12 -23.333 30.668 -35.001 56.001 -35.001c14 0 40.667 6 80 18l10 2c11.333 0 19.666 -7 24.999 -21c2 -14 -2.66699 -24 -14 -30c-32.667 -15.333 -64.334 -23 -95.001 -23c-36 0 -65.833 10.833 -89.5 32.5s-35.5 50.834 -35.5 87.501c0 30.667 15 65 45 103
c24 28.667 52 51.334 84 68.001l15 6l29 4c24.667 0 45.334 -10.333 62.001 -31c12.667 -16.667 19 -35.334 19 -56.001c0 -32.667 -19 -61 -57 -85c-33.333 -20 -78 -33.333 -134 -40zM93.001 87.999c78 10 124.334 28.667 139.001 56c4 6.66699 6.33301 14.334 7 23.001
c0 10 -4 17 -12 21s-15.333 6 -22 6c-10 0 -21.333 -3.83301 -34 -11.5s-28.334 -21.334 -47.001 -41.001s-29 -37.5 -31 -53.5z" />
    <glyph glyph-name="f" unicode="f" horiz-adv-x="220" 
d="M186 241l62 -1.00293c12.667 0 19 -9 19 -27c0 -16 -6 -24 -18 -24l-81 1c-26 -67.333 -44 -142.666 -54 -225.999c0 -13.333 -9 -20 -27 -20c-16.667 0 -25 9.33301 -25 28c0 16 4 42.667 12 80c3.33301 16 8.16602 35.833 14.499 59.5s13.833 50.167 22.5 79.5h-47
c-14.667 0 -22 8 -22 24c0 14.667 6.33301 23.334 19 26.001l70 2c77.333 190 143 299.333 197 328c6.66699 4 15.334 6.33301 26.001 7c12 0 23 -4.66699 33 -14c10 -8 16 -17.333 18 -28c0 -9.33301 -3.33301 -17.166 -10 -23.499s-14 -8.5 -22 -6.5l-17 9l-10 7l-9 -5
c-44.667 -50 -95 -142 -151 -276z" />
    <glyph glyph-name="g" unicode="g" horiz-adv-x="361" 
d="M338 165l2.00195 -17.998c0 -10.667 -2.66699 -18.667 -8 -24c-2 -2 -4 -9 -6 -21c0 -28 -1 -52.667 -3 -74s-5.66699 -41.666 -11 -60.999c-8.66699 -36.667 -22 -68.334 -40 -95.001c-26 -36.667 -59.667 -69.334 -101 -98.001c-36 -23.333 -75 -39.666 -117 -48.999
c-12 -2 -22 0 -30 6s-12 13.333 -12 22c0 9.33301 4.33301 17.333 13 24c16 12 32 18 48 18h27c52 28 91.333 59.333 118 94c14 19.333 25.5 43.166 34.5 71.499s13.5 57.5 13.5 87.5c-70.667 -62.667 -127.334 -94 -170.001 -94c-14.667 0 -28.334 3.66699 -41.001 11
c-16.667 9.33301 -25 26.666 -25 51.999c0 12 3 24 9 36c20 38 49 75 87 111s74 59 108 69c14 4 26.333 6 37 6c23.333 0 43 -20 59 -60zM250.002 181.002c-30 -10 -61.333 -31.3359 -94 -64.0029c-28 -26 -51 -54 -69 -84l-4 -13c0 -8 5 -12 15 -12
c22.667 0 53.167 14.833 91.5 44.5s66.833 56.834 85.5 81.501c2 2.66699 3.33301 9.33398 4 20.001c0 10.667 -1.33301 17.834 -4 21.501s-7 6.16699 -13 7.5z" />
    <glyph glyph-name="h" unicode="h" horiz-adv-x="386" 
d="M108 111c16 11.333 30.835 20.832 44.502 28.499s28.167 14.834 43.5 21.501c28 11.333 53.667 17 77 17c16 0 29.333 -2.66699 40 -8c11.333 -4 21 -12.333 29 -25l9 -39l1 -23l-3 -71l-3 -43l2 -11l2 -13c-3.33301 -14.667 -13 -22 -29 -22
c-15.333 0 -24.333 7.66699 -27 23l1 33l2 37l1 50l1 36c0 16 -9.33301 24 -28 24c-6.66699 0 -14.334 -1.33301 -23.001 -4c-39.333 -10 -75.333 -27.333 -108 -52c-28.667 -20.667 -49 -42.667 -61 -66c-4 -10 -12 -15 -24 -15c-8 0 -15 3.16699 -21 9.5
s-8 15.166 -6 26.499l18 86l31 125c24.667 92 46 162.333 64 211c4 12.667 12.333 19 25 19c9.33301 0 16.666 -3.66699 21.999 -11c3.33301 -3.33301 5 -8.66602 5 -15.999c0 -6 -0.666992 -10 -2 -12c-20 -54 -50 -157 -90 -309v-9z" />
    <glyph glyph-name="i" unicode="i" horiz-adv-x="148" 
d="M128 166c-8.66699 -18 -17.332 -42.333 -25.999 -73c-2.66699 -12 -5 -25.5 -7 -40.5s-3 -30.167 -3 -45.5c0 -20 -9.33301 -30 -28 -30c-17.333 0 -26 9.33301 -26 28c0 32 3.66699 65.5 11 100.5s18.333 63.5 33 85.5c6 8 13.667 12.333 23 13
c9.33301 0 16.666 -3.66699 21.999 -11c2 -2.66699 3.66699 -7 5 -13zM181.002 270c0 -10 -3.83203 -19 -11.499 -27s-17.5 -12 -29.5 -12c-20.667 0 -31 14.333 -31 43c0 8 4.33301 16.667 13 26c5.33301 5.33301 13.666 9 24.999 11c22.667 0 34 -13.667 34 -41z" />
    <glyph glyph-name="j" unicode="j" horiz-adv-x="197" 
d="M189 370c0 -10 -3.83203 -19 -11.499 -27s-17.5 -12 -29.5 -12c-20.667 0 -31 14.333 -31 43c0 8 4.33301 16.667 13 26c5.33301 5.33301 13.666 9 24.999 11c22.667 0 34 -13.667 34 -41zM101.001 162c-7.33301 -10 -14.333 -14.999 -21 -14.999c-4 0 -9.66699 2 -17 6
l-7 16c0 6.66699 5.33301 17.667 16 33l32 51c3.33301 6.66699 10.666 10 21.999 10c18.667 0 28 -7.33301 28 -22c0 -100 -3 -184 -9 -252c0 -33.333 -2.16699 -61.833 -6.5 -85.5s-11.5 -53.834 -21.5 -90.501c-24 -87.333 -58.667 -131 -104 -131c-17.333 0 -26 9 -26 27
c0 12 3.66699 20 11 24l33 15c17.333 14 33.333 59 48 135c3.33301 18 6.33301 37.5 9 58.5s5.33398 45.167 8.00098 72.5c0 19.333 0.833008 46.5 2.5 81.5s2.5 57.167 2.5 66.5z" />
    <glyph glyph-name="k" unicode="k" horiz-adv-x="320" 
d="M142 143l170.996 60.001c10 2 17.833 0.333008 23.5 -5s9.5 -13 11.5 -23c0 -10 -4.33301 -16.333 -13 -19c-32 -10 -94 -32 -186 -66l147 -62c8 -4 12.333 -10.667 13 -20c0 -8.66699 -3.16699 -16.167 -9.5 -22.5s-15.166 -8.5 -26.499 -6.5
c-53.333 19.333 -107.666 42.666 -162.999 69.999c-6 3.33301 -11 1.33301 -15 -6l-31 -74c-5.33301 -8 -12.666 -12 -21.999 -12c-17.333 0 -26 8.66699 -26 26l3 16l146 352c4 10 11.333 15 22 15c8 0 15.667 -3.66699 23 -11c4.66699 -4 6.33398 -11.667 5.00098 -23
l-36 -89l-41 -93v-6z" />
    <glyph glyph-name="l" unicode="l" horiz-adv-x="150" 
d="M36 5c6 45.333 25.1689 119.167 57.502 221.5s57.166 164.833 74.499 187.5c4 6 10.667 9.33301 20 10c9.33301 0 16.666 -3.66699 21.999 -11c2 -2 3.66699 -6 5 -12l-3 -12c-20 -42 -41.167 -97.667 -63.5 -167s-43.833 -148 -64.5 -236c-2 -11.333 -10 -17 -24 -17
c-19.333 0 -27.333 12 -24 36z" />
    <glyph glyph-name="m" unicode="m" horiz-adv-x="550" 
d="M135 117c42 57.333 83.332 86.002 123.999 86.002l12 -1c34.667 -5.33301 52 -35 52 -89c38.667 60.667 78 91 118 91c20.667 0 36.667 -8.66699 48 -26c8.66699 -12.667 15 -30 19 -52l-2 -93l6 -4c1.33301 -0.666992 2.83301 -1.33398 4.5 -2.00098
s3.33398 -2.16699 5.00098 -4.5s3.16699 -7.5 4.5 -15.5c0 -18 -10.333 -27 -31 -27c-22 0 -35.667 16 -41 48l1 55c0 30 -2.16699 48.667 -6.5 56s-9.16602 11 -14.499 11c-4 0 -10 -3 -18 -9c-25.333 -20.667 -59 -65.334 -101 -134.001
c-5.33301 -9.33301 -14 -15 -26 -17c-6.66699 0 -14.334 4.33301 -23.001 13c-2 2 -3 7.33301 -3 16l4 46l5 50c0 23.333 -6 35 -18 35c-6.66699 0 -13.667 -2.66699 -21 -8c-44 -28 -81.333 -74.333 -112 -139c-10 -21.333 -23 -32 -39 -32c-6 0 -11.333 2.5 -16 7.5
s-8 12.833 -10 23.5l2 18l34 172c2 17.333 11 26 27 26c17.333 0 26 -9 26 -27v-18l-4 -16z" />
    <glyph glyph-name="n" unicode="n" horiz-adv-x="380" 
d="M103 78c63.333 86 121.665 128.999 174.998 128.999c26.667 0 45.334 -17.667 56.001 -53c1.33301 -6 2.66602 -14.167 3.99902 -24.5s2 -21.833 2 -34.5l1 -64l3 -5l9 -6c4 -1.33301 7 -5.66602 9 -12.999l1 -8c0 -10 -6 -18 -18 -24l-8 -2h-6
c-5.33301 0 -11.666 2 -18.999 6c-14 10 -21 29 -21 57l-3 85c0 22 -8 33 -24 33l-16 -4c-19.333 -8 -49.333 -36.333 -90 -85c-31.333 -36.667 -54.666 -67 -69.999 -91c-4 -8 -11.333 -12.333 -22 -13c-12 0 -22.333 8.66699 -31 26c-2 5.33301 -3 11.666 -3 18.999l1 15
l3 14l45 176c2 16.667 12.333 25 31 25c10 0 17.667 -6 23 -18c2 -9.33301 -1.33301 -28.666 -10 -57.999z" />
    <glyph glyph-name="o" unicode="o" 
d="M253 208c14.667 -18.667 22 -40.666 22 -65.999c0 -42 -17.833 -83 -53.5 -123s-73.5 -60 -113.5 -60c-16 0 -31.667 4.33301 -47 13c-20 11.333 -30 35.666 -30 72.999c0 34 10 68.667 30 104c34.667 58.667 73.667 88 117 88c36.667 0 61.667 -9.66699 75 -29z
M139 167.001c-38 -38 -56.998 -81.001 -56.998 -129.001c0 -18 9.33301 -27 28 -27l19 3c29.333 10 53.666 30 72.999 60c14.667 24 22 49.333 22 76c0 10.667 -4.66699 18.834 -14 24.501s-21.333 8.5 -36 8.5c-14.667 -2 -26.334 -7.33301 -35.001 -16z" />
    <glyph glyph-name="p" unicode="p" horiz-adv-x="346" 
d="M48 169c8 16 25.665 27.168 52.998 33.501s51.333 9.5 72 9.5c48 0 87 -10.167 117 -30.5s47.667 -46.5 53 -78.5c0 -27.333 -16.333 -54.166 -49 -80.499s-73.334 -46.5 -122.001 -60.5c-9.33301 -2 -16 -0.833008 -20 3.5s-7 11.5 -9 21.5
c0 10.667 4.33301 18.334 13 23.001c64.667 20 107.334 44.333 128.001 73l5 17c0 20 -16.333 36.333 -49 49c-20.667 7.33301 -41.667 11 -63 11c-19.333 0 -42 -3 -68 -9c-4 0 -6 -3.66699 -6 -11c2.66699 -10.667 4.66699 -20.667 6 -30s2 -20.333 2 -33
c0 -37.333 -9 -91 -27 -161c-8.66699 -39.333 -13 -72 -13 -98c0 -8 -3.16699 -15.167 -9.5 -21.5s-13.166 -9.5 -20.499 -9.5c-14 0 -21 9.33301 -21 28c0 8 0.333008 16.833 1 26.5s2.33398 22.667 5.00098 39s7.66699 38.166 15 65.499c12 53.333 18 98.666 18 135.999
c0 8.66699 -0.666992 15.667 -2 21c0 7.33301 -3 17.666 -9 30.999l-3 18z" />
    <glyph glyph-name="q" unicode="q" horiz-adv-x="350" 
d="M263 40c-74 -40.667 -129.001 -61.002 -165.001 -61.002c-16 0 -30.5 4.33301 -43.5 13s-19.5 26.334 -19.5 53.001c0 8.66699 0.5 17 1.5 25s4.16699 17.333 9.5 28c20 43.333 49.333 78.833 88 106.5s83.334 41.5 134.001 41.5c22.667 0 41.667 -7.66699 57 -23
c16 -14 24 -30.333 24 -49l2 -31c0 -10 -1.33301 -18.667 -4 -26c-32 -72.667 -63.333 -170.667 -94 -294l42 47l17 5c10 0 18 -5.33301 24 -16l4 -14c-2 -5.33301 -3.66699 -8.66602 -5 -9.99902l-21 -21l-29 -36l-47 -59c-7.33301 -8.66699 -17 -13 -29 -13
c-17.333 0 -26 9.66699 -26 29c6 37.333 17.167 89 33.5 155s31.833 116 46.5 150zM252.999 190.998c-36.667 -5.33301 -71.665 -19.666 -104.998 -42.999c-40 -28 -60 -60.667 -60 -98c0 -12 6 -18 18 -18l11 1c32.667 8 64 20.667 94 38s54 35.666 72 54.999
c5.33301 6.66699 9.66602 16 12.999 28c1.33301 10 -0.333984 18.833 -5.00098 26.5s-14 11.5 -28 11.5z" />
    <glyph glyph-name="r" unicode="r" horiz-adv-x="230" 
d="M100 163c7.33301 6.66699 17.668 14.833 31.001 24.5s24 17.167 32 22.5c19.333 11.333 35.666 17 48.999 17c12.667 0 22.5 -3.66699 29.5 -11s10.5 -16.333 10.5 -27c0 -6 -4 -12 -12 -18l-18 -7l-7 2c-2.66699 2 -8 2.33301 -16 1c-20 -6 -48.667 -27 -86 -63
c-10 -10 -16 -21 -18 -33l-6 -99c0 -13.333 -9.33301 -20 -28 -20c-16 0 -24 8.33301 -24 25l13 217c0 14.667 8.33301 22 25 22s25 -7.33301 25 -22v-31z" />
    <glyph glyph-name="s" unicode="s" horiz-adv-x="247" 
d="M106 147c37.333 0 65.1699 -2.66992 83.5029 -8.00293s31.166 -16.666 38.499 -33.999l4 -26c0 -28.667 -12.167 -55.834 -36.5 -81.501s-56.833 -44.5 -97.5 -56.5l-33 -5c-30 0 -45 11.333 -45 34c0 20 9 30 27 30l11 -1l8 -7c1.33301 -2 4.66602 -3.66699 9.99902 -5
c28 6 53.333 19.333 76 40c20 18 30 34 30 48s-8.33301 21 -25 21c-42.667 0 -73.5 3 -92.5 9s-28.5 19.333 -28.5 40c0 16.667 8.83301 32.834 26.5 48.501s41.167 31.834 70.5 48.501c34 20 61.667 30 83 30c10 0 18.333 -4.33301 25 -13
c2 -3.33301 3.66699 -8.33301 5 -15l-4 -14c-2 -6 -6.66699 -10 -14 -12l-20 -2c-32.667 -11.333 -66.334 -29 -101.001 -53c-3.33301 -1.33301 -6 -4.66602 -8 -9.99902c0 -4 2.33301 -6 7 -6z" />
    <glyph glyph-name="t" unicode="t" horiz-adv-x="219" 
d="M162 225l17.998 1h15h16l23 -4c8.66699 0 13 -7.33301 13 -22c0 -14 -8.33301 -22.333 -25 -25l-68 -2l-23 -209c0 -14 -8.66699 -21 -26 -21c-16.667 0 -25 7.33301 -25 22c0 12 0.333008 25.167 1 39.5s1.83398 29.5 3.50098 45.5s3.66699 33.833 6 53.5
s5.83301 43.167 10.5 70.5h-50c-14.667 2 -22 10 -22 24c0 16.667 6.33301 25 19 25l61 2c13.333 90 22 139.333 26 148c4 11.333 12.667 17 26 17c8.66699 0 15.834 -2.16699 21.501 -6.5s7.5 -10.5 5.5 -18.5l-12 -56z" />
    <glyph glyph-name="u" unicode="u" horiz-adv-x="300" 
d="M310 184c0 -50.667 -17.332 -98.668 -51.999 -144.001c-32 -42 -68.667 -63 -110 -63s-69.333 13.667 -84 41c-10.667 22.667 -16 56.667 -16 102v38l1 40c0 18.667 10 28 30 28c16.667 0 25 -7.66699 25 -23l-4 -87c0 -35.333 3.66699 -58.666 11 -69.999
s21.666 -17 42.999 -17c18 0 39 16 63 48s36 62.333 36 91l-1 14c-1.33301 8 1 15 7 21s13.667 9 23 9c18.667 0 28 -9.33301 28 -28z" />
    <glyph glyph-name="v" unicode="v" horiz-adv-x="261" 
d="M120 35l108.001 158c4 5.33301 11 9 21 11c7.33301 0 15 -4.33301 23 -13c2 -2.66699 3.66699 -7 5 -13l-4 -12l-135 -197c-8.66699 -10.667 -18.334 -16 -29.001 -16c-14 0 -23.333 7.66699 -28 23l-42 195c-2 10 -0.333008 17.833 5 23.5s12 8.5 20 8.5
c14 0 23 -7 27 -21l13 -73z" />
    <glyph glyph-name="w" unicode="w" horiz-adv-x="460" 
d="M352 46c44 92.667 73.3291 147.334 87.9961 164.001c6 6 13.333 9.33301 22 10c8 0 15.667 -4 23 -12c2 -2.66699 3.66699 -6.66699 5 -12c0 -4 -1.66699 -8.66699 -5 -14c-24.667 -36.667 -55.667 -93 -93 -169c-9.33301 -19.333 -23.666 -29 -42.999 -29
c-10.667 0 -20.334 5.33301 -29.001 16l-37 67l-34 71l-96 -138c-10 -13.333 -22.333 -20 -37 -20c-13.333 0 -22.666 4.66699 -27.999 14c-11.333 21.333 -23.666 60.666 -36.999 117.999l-8 47l-5 40c0 20.667 9 31 27 31s27 -9 27 -27c0 -19.333 1.83301 -40.333 5.5 -63
s6.83398 -39.334 9.50098 -50.001c0.666992 -3.33301 4 -13.666 10 -30.999c2 -5.33301 4.66699 -9 8 -11c3.33301 2 6 4.66699 8 8c18 32.667 48 76 90 130c10.667 12.667 21.334 19 32.001 19c10 0 18.667 -5.66699 26 -17c12 -20.667 35.667 -68 71 -142z" />
    <glyph glyph-name="x" unicode="x" 
d="M159 130l89 141.002c6 8 13.333 12.333 22 13c7.33301 0 14.666 -4 21.999 -12c2 -2.66699 3.66699 -7 5 -13l-4 -12l-51 -85l-51 -75l58 -76c2.66699 -4.66699 5.33398 -11.667 8.00098 -21c0 -8.66699 -4.33301 -16.334 -13 -23.001c-2.66699 -2 -7 -3.66699 -13 -5
l-10 3c-10 6.66699 -31.667 32 -65 76l-69 -77c-4 -4 -8.66699 -6 -14 -6s-11.333 2.66699 -18 8s-10.334 12 -11.001 20c0 6 2.33301 11.333 7 16l74 83c-37.333 58.667 -65.666 115.667 -84.999 171c-2 7.33301 -0.333008 14 5 20s13.333 10 24 12c8.66699 0 16 -6 22 -18
c16 -46.667 38.667 -93.334 68 -140.001z" />
    <glyph glyph-name="y" unicode="y" horiz-adv-x="310" 
d="M211 33l66.999 188.999c4 9.33301 11.333 15 22 17c8 0 15 -3.33301 21 -10c6 -5.33301 8.33301 -12.666 7 -21.999c-39.333 -129.333 -107.666 -303 -204.999 -521c-6 -14.667 -16 -22 -30 -22c-16 0 -24 7.66699 -24 23l3 13l118 284c-86 78 -143 149.333 -171 214
l-2 10c0 12 6.33301 20.333 19 25c12 4 22.333 -1 31 -15c32 -59.333 80 -121 144 -185z" />
    <glyph glyph-name="z" unicode="z" horiz-adv-x="290" 
d="M199 167l-68 -6l-48 -2c-18.667 2 -28 11.333 -28 28c0 16 7.33301 24 22 24l178 9c8 0 15 -3.33301 21 -10c6 -4.66699 9.33301 -12 10 -22c0 -8 -3.33301 -15 -10 -21l-157 -144l155 9c18 0 27 -8.66699 27 -26c0 -14 -6.33301 -22.333 -19 -25
c-12 0 -34.167 -0.666992 -66.5 -2s-52.5 -2 -60.5 -2l-81 -5c-24.667 0 -37 10 -37 30c0 10 4 19 12 27c43.333 42 93.333 88 150 138z" />
    <glyph glyph-name="braceleft" unicode="{" horiz-adv-x="275" 
d="M305 520c8.66699 0 12.999 -5.33301 12.999 -16c0 -6 -2.16699 -11.5 -6.5 -16.5s-9.83301 -7.5 -16.5 -7.5c-11.333 0 -22.166 -0.166992 -32.499 -0.5s-18.5 -1.83301 -24.5 -4.5c-12 -5.33301 -18 -25.666 -18 -60.999l1 -41l1 -42c0 -21.333 -1.33301 -38.333 -4 -51
c-6.66699 -34.667 -23 -60 -49 -76l-9 -5l-8 -3l9 -10c8.66699 -14 13 -32 13 -54c-2 -21.333 -12.667 -49 -32 -83l-47 -83c-10 -22 -14 -38.333 -12 -49c4 -13.333 18 -21.666 42 -24.999c8 0 12 -5 12 -15c0 -6.66699 -2.16699 -12.5 -6.5 -17.5
s-10.166 -7.5 -17.499 -7.5c-20.667 2 -35.334 5.66699 -44.001 11c-11.333 7.33301 -19.333 19.666 -24 36.999l-2 17c0 17.333 5.66699 37.666 17 60.999l44 75c18 30 28 54.667 30 74c0 4 -0.333008 9.33301 -1 16s-2 11.667 -4 15c-4 7.33301 -12.333 15.333 -25 24
c-8 3.33301 -12 9 -12 17c0 10 6.33301 17 19 21c12 2.66699 26.667 9 44 19c12 8.66699 20 21.5 24 38.5s6 34.833 6 53.5l-2 54v50c4 38 19 63 45 75c8.66699 4 19.667 6.66699 33 8s28 2 44 2z" />
    <glyph glyph-name="bar" unicode="|" horiz-adv-x="222" 
d="M182 484c0 -4.66699 -3.99902 -10.999 -11.999 -18.999c-2.66699 -28 -5.33398 -59.667 -8.00098 -95s-4 -71.333 -4 -108c0 -34.667 -0.5 -75 -1.5 -121s-1.83301 -96 -2.5 -150c0 -4.66699 -1.66699 -8.5 -5 -11.5s-9 -5.16699 -17 -6.5c-10 0 -15.667 5 -17 15
c0 29.333 0.833008 77.666 2.5 144.999s2.5 113.666 2.5 138.999c0 49.333 1 87.333 3 114s5.33301 57.334 10 92.001c4 21.333 14.333 31 31 29c12 -3.33301 18 -11 18 -23z" />
    <glyph glyph-name="braceright" unicode="}" horiz-adv-x="275" 
d="M271 487l4.00293 -25.002c0 -13.333 -4 -31 -12 -53l-37 -75c-16 -30 -24 -55 -24 -75c0 -12.667 2.66699 -23 8 -31c10 -10.667 19.167 -18.167 27.5 -22.5s12.833 -10.833 13.5 -19.5c0 -9.33301 -6 -15.666 -18 -18.999c-14 -2.66699 -28 -8.66699 -42 -18
c-16 -12 -24 -33.667 -24 -65c0 -13.333 2 -36 6 -68l7 -65c0 -42.667 -17.333 -69.334 -52 -80.001c-8 -2 -18.5 -3.16699 -31.5 -3.5s-23.833 -0.5 -32.5 -0.5c-8.66699 0.666992 -13.334 6.33398 -14.001 17.001c0 15.333 7.33301 23 22 23
c4 -1.33301 7.83301 -2 11.5 -2h11.5c13.333 0 24.333 2.16699 33 6.5s13 16.166 13 35.499l-6 66c-4 32 -6 55.333 -6 70c0 46.667 15 80 45 100l17 8l-12 11c-10.667 16 -16 33.667 -16 53c0 20.667 8 48.667 24 84l40 83c6.66699 18 10 30.333 10 37
c0 5.33301 -1 10.833 -3 16.5s-7 10.5 -15 14.5c-0.666992 0.666992 -3.83398 1.5 -9.50098 2.5s-12.334 1.83301 -20.001 2.5s-11.834 6.33398 -12.501 17.001c0 15.333 7.33301 23 22 23c20 -2 35.333 -6.16699 46 -12.5s19.334 -18.166 26.001 -35.499z" />
    <glyph glyph-name="asciitilde" unicode="~" horiz-adv-x="275" 
d="M236 359c-14.667 -18.667 -30.335 -27.9971 -47.002 -27.9971c-11.333 0 -26.333 8 -45 24s-33 25 -43 27c-11.333 0 -25.666 -12 -42.999 -36c-4 -2.66699 -7 -4.33398 -9 -5.00098c-3.33301 0 -7.33301 2 -12 6s-7 10 -7 18c0 3.33301 2 8.66602 6 15.999
c24 31.333 46.667 47 68 47c12.667 0 28.667 -8.66699 48 -26c18 -14.667 31 -23.334 39 -26.001c10 0 19.333 8.33301 28 25c2 4 5 6 9 6c6.66699 0 12.334 -4.66699 17.001 -14c2 -10 -1 -21.333 -9 -34z" />
    <glyph glyph-name="nonbreakingspace" unicode="&#xa0;" horiz-adv-x="210" 
 />
    <glyph glyph-name="exclamdown" unicode="&#xa1;" horiz-adv-x="268" 
d="M187 269l-30.002 -277.998c-2 -16.667 -10.333 -25 -25 -25c-7.33301 0 -13.166 2.16699 -17.499 6.5s-7.16602 12.166 -8.49902 23.499c0 31.333 4 80.666 12 147.999l17 128c2 15.333 11.333 23 28 23c18 0 26 -8.66699 24 -26zM135.998 386.002
c0 11.333 3.66602 21.833 10.999 31.5s16 14.5 26 14.5c8 0 17.333 -4.33301 28 -13c3.33301 -2.66699 6 -9 8 -19c0 -12 -4.16699 -23.167 -12.5 -33.5s-18.166 -15.5 -29.499 -15.5c-8 0 -15.167 3.5 -21.5 10.5s-9.5 15.167 -9.5 24.5z" />
    <glyph glyph-name="cent" unicode="&#xa2;" horiz-adv-x="310" 
d="M238 314c14 6 26.335 8.99805 37.002 8.99805c7.33301 0 14.166 -2.83301 20.499 -8.5s10.5 -13.5 12.5 -23.5c0 -5.33301 -3.33301 -11 -10 -17c-3.33301 -2 -7.66602 -3 -12.999 -3l-13 1l-7 3l-6 3c-12 -4 -23 -10 -33 -18l-12 -73l-11 -87l81 28
c6.66699 2 11.667 1.5 15 -1.5s6 -8.16699 8 -15.5c0 -6 -4 -12.667 -12 -20c-16.667 -10 -48.334 -21.333 -95.001 -34l-3 -56c0 -10 -6 -15 -18 -15c-12.667 0 -20.334 6.66699 -23.001 20l-1 44l-31 -3c-25.333 0 -47 11 -65 33c-7.33301 10.667 -11 22.667 -11 36
c0 20 11 46.667 33 80c20 26.667 56.667 58.334 110 95.001c4 32.667 6.66699 50.334 8 53.001l5 20c2 9.33301 9.66699 14 23 14c4 0 9.66699 -2 17 -6c4 -4 5.33301 -9 4 -15zM177.002 227.998c-18.667 -14.667 -38.333 -33 -59 -55c-18.667 -22.667 -28 -41 -28 -55
c0 -6 2 -11 6 -15c9.33301 -9.33301 22 -14 38 -14l25 3z" />
    <glyph glyph-name="sterling" unicode="&#xa3;" horiz-adv-x="360" 
d="M130 137c-10.667 -33.333 -18.998 -72.333 -24.998 -117c53.333 0 100.666 3.66699 141.999 11c42.667 5.33301 72 10.666 88 15.999l11 2c11.333 0 19 -6.33301 23 -19c2 -12 -3 -20 -15 -24c-33.333 -7.33301 -72.666 -13.666 -117.999 -18.999
c-21.333 -2 -42.833 -3.66699 -64.5 -5s-44.5 -2 -68.5 -2c0 -14.667 -12.333 -22 -37 -22s-49.334 6.66699 -74.001 20c-8 4 -12 11.667 -12 23c0 10 6 16.667 18 20l65 -1c4 30.667 11 67.334 21 110.001h-20.5c-6.33301 0 -12.5 -0.666992 -18.5 -2l-9 -3
c-16.667 0 -25 7 -25 21c0 11.333 7.33301 19 22 23h13c5.33301 0 12.666 0.666992 21.999 2l29 3c22.667 65.333 50.667 123 84 173c30 42 55.667 65.333 77 70l15 1c24.667 0 43 -14 55 -42l2 -9c0 -8 -5.33301 -13.333 -16 -16c-10 -2 -18.167 1.33301 -24.5 10
s-12.5 14 -18.5 16l-5 -1c-38 -24 -78 -89 -120 -195l69 10c15.333 0 23 -7.66699 23 -23c0 -8.66699 -4.66699 -14.334 -14 -17.001l-42 -5z" />
    <glyph glyph-name="dieresis" unicode="&#xa8;" horiz-adv-x="271" 
d="M110 306c-8 -6 -17.333 -8.99902 -28 -8.99902c-10 0 -19.333 1.66699 -28 5c-6 3.33301 -9 8.33301 -9 15c0 11.333 6.66699 23.666 20 36.999c4.66699 3.33301 13.667 6 27 8c14 0 23.333 -4.66699 28 -14c2 -4 3 -8.66699 3 -14c0 -12 -4.33301 -21.333 -13 -28z
M236 308.001c-8 -6 -17.333 -8.99902 -28 -8.99902c-10 0 -19.333 1.66699 -28 5c-6 3.33301 -9 8.33301 -9 15c0 11.333 6.66699 23.666 20 36.999c4.66699 3.33301 13.667 6 27 8c14 0 23.333 -4.66699 28 -14c2 -4 3 -8.66699 3 -14c0 -12 -4.33301 -21.333 -13 -28z" />
    <glyph glyph-name="copyright" unicode="&#xa9;" horiz-adv-x="598" 
d="M163 408c68.667 45.333 135.001 68 199.001 68c79.333 0 143.666 -33 192.999 -99c33.333 -48.667 50 -100.334 50 -155.001c0 -17.333 -2 -36.666 -6 -57.999c-14 -74 -56.333 -132.333 -127 -175c-60 -36.667 -128 -55 -204 -55c-84 0 -147 21 -189 63
c-36 35.333 -54 82.333 -54 141c0 50.667 13 101.667 39 153s59 90.333 99 117zM274.001 -44c70 0 132 16.667 186 50c60.667 38 99 91 115 159l4 25l1 26c0 56.667 -18 107.834 -54 153.501s-83 72.167 -141 79.5l-14 1h-11c-28.667 0 -58 -5.16699 -88 -15.5
s-62 -26.166 -96 -47.499s-63 -55.333 -87 -102s-36 -94.334 -36 -143.001c0 -53.333 16.333 -96.333 49 -129c19.333 -18.667 43 -32.834 71 -42.501s61.667 -14.5 101 -14.5zM366.001 300c-102.667 -60.667 -154 -110.667 -154 -150c0 -20 12 -30 36 -30
c31.333 0 78.666 13.667 141.999 41l13 3c12 0 20.333 -6.66699 25 -20c3.33301 -12 -2 -22 -16 -30c-64.667 -30.667 -118 -46 -160 -46c-32 0 -56.667 8.66699 -74 26c-13.333 13.333 -20 31.333 -20 54c0 22 7 43.667 21 65c24 34 54 63.667 90 89s71.667 44 107 56l13 2
c18.667 0 31.334 -10.667 38.001 -32c2 -8 -0.166992 -15.833 -6.5 -23.5s-13.5 -11.5 -21.5 -11.5c-5.33301 0 -10.333 2.33301 -15 7c-4 4 -10 4 -18 0z" />
    <glyph glyph-name="guillemotleft" unicode="&#xab;" horiz-adv-x="274" 
d="M170 195l-76 -83c-6 -6.66699 -7.33301 -14 -4 -22c8.66699 -16.667 24 -42 46 -76c4 -4 6 -9 6 -15c0 -6.66699 -4.33301 -12.334 -13 -17.001c-8 -3.33301 -15 -1 -21 7c-20 27.333 -39.333 59 -58 95l-4 15c0 4.66699 2.33301 11.334 7 20.001l91 102
c3.33301 4 7.33301 6 12 6c5.33301 0 11 -3.33301 17 -10c4 -6 3 -13.333 -3 -22zM270 195l-76 -83c-6 -6.66699 -7.33301 -14 -4 -22c8.66699 -16.667 24 -42 46 -76c4 -4 6 -9 6 -15c0 -6.66699 -4.33301 -12.334 -13 -17.001c-8 -3.33301 -15 -1 -21 7
c-20 27.333 -39.333 59 -58 95l-4 15c0 4.66699 2.33301 11.334 7 20.001l91 102c3.33301 4 7.33301 6 12 6c5.33301 0 11 -3.33301 17 -10c4 -6 3 -13.333 -3 -22z" />
    <glyph glyph-name="acute" unicode="&#xb4;" horiz-adv-x="201" 
d="M161 383l-100 -72l-13 -4c-6 0 -11.667 2.66699 -17 8c-4 6 -6 12.333 -6 19c0 4.66699 2.33301 9.33398 7 14.001l54 37l50 33l12 4c8 0 14.333 -5.33301 19 -16c2 -8.66699 0 -16.334 -6 -23.001z" />
    <glyph glyph-name="cedilla" unicode="&#xb8;" horiz-adv-x="430" 
d="M187 -35l-9.99902 -26l-7 -28c0 -8 5 -16.667 15 -26c9.33301 -6 14.666 -13 15.999 -21c0 -12 -17.667 -23 -53 -33c-8 -2 -12 -7.33301 -12 -16c0 -14 8.66699 -21 26 -21c8 0 16.833 2 26.5 6s20.167 10.667 31.5 20c22 17.333 33 35 33 53
c0 6.66699 -5.33301 14.5 -16 23.5s-16.667 16.167 -18 21.5l2 11l9 23c-22.667 10 -37 14.333 -43 13z" />
    <glyph glyph-name="guillemotright" unicode="&#xbb;" horiz-adv-x="274" 
d="M34 11l76 82.999c6 6.66699 7.33301 14 4 22c-8.66699 16.667 -24 42 -46 76c-4 4 -6 9 -6 15c0 6.66699 4.33301 12.334 13 17.001c8 3.33301 15 1 21 -7c20 -27.333 39.333 -59 58 -95l4 -15c0 -6 -2.33301 -12.667 -7 -20l-91 -102c-3.33301 -4 -7.33301 -6 -12 -6
c-12.667 0 -19 6.33301 -19 19c0 4.66699 1.66699 9 5 13zM134 10.999l76 82.999c6 6.66699 7.33301 14 4 22c-8.66699 16.667 -24 42 -46 76c-4 4 -6 9 -6 15c0 6.66699 4.33301 12.334 13 17.001c8 3.33301 15 1 21 -7c20 -27.333 39.333 -59 58 -95l4 -15
c0 -6 -2.33301 -12.667 -7 -20l-91 -102c-3.33301 -4 -7.33301 -6 -12 -6c-12.667 0 -19 6.33301 -19 19c0 4.66699 1.66699 9 5 13z" />
    <glyph glyph-name="questiondown" unicode="&#xbf;" horiz-adv-x="436" 
d="M243 356c0 12 3.66895 22.668 11.002 32.001s17 14 29 14c5.33301 0 12.333 -2.83301 21 -8.5s13 -12.834 13 -21.501c0 -12 -4.16699 -23 -12.5 -33s-18.5 -15 -30.5 -15c-6.66699 0 -13.334 3 -20.001 9s-10.334 13.667 -11.001 23zM361.002 -15.999
c-24.667 -20.667 -67.666 -31.001 -128.999 -31.001c-41.333 0 -76.833 5.5 -106.5 16.5s-48.5 28.167 -56.5 51.5l-4 19l-1 18c0 40.667 21.667 75.667 65 105l124 72l5 6l-4 3c-18.667 0 -28 8.33301 -28 25c0 8.66699 3.5 15.5 10.5 20.5s15.5 8.5 25.5 10.5
c11.333 0 22.666 -6 33.999 -18c10 -12 15 -25.667 15 -41c0 -10.667 -3.33301 -19.667 -10 -27c-12.667 -16.667 -36.334 -34.667 -71.001 -54l-81 -48c-22.667 -17.333 -34 -35.666 -34 -54.999c2 -16 13.667 -29.333 35 -40c22.667 -9.33301 48 -14 76 -14
c40.667 0 76.667 8.33301 108 25l18 5c10.667 0 18.334 -5.66699 23.001 -17c2 -10 -2.66699 -20.667 -14 -32z" />
    <glyph glyph-name="Agrave" unicode="&#xc0;" horiz-adv-x="450" 
d="M122 171l137 254.002c4 14 13.333 22.333 28 25c13.333 0 24 -8.66699 32 -26c9.33301 -28 28.333 -110 57 -246h39c14.667 0 25.667 -0.666992 33 -2s11 -9 11 -23s-7.33301 -22.333 -22 -25l-53 -2l10 -50c8.66699 -46.667 13 -82.667 13 -108
c0 -12.667 -2.66699 -21.667 -8 -27c-4 -6 -10.333 -9 -19 -9c-14 0 -22 7 -24 21l-25 170l-178 -4l-91 -177c-6.66699 -10.667 -14.334 -16 -23.001 -16c-6 0 -12 3 -18 9c-3.33301 4.66699 -5.66602 10.667 -6.99902 18c0 5.33301 1.33301 10.666 4 15.999l75 146
c-16 4 -24 12 -24 24c0 9.33301 6 18.666 18 27.999zM283 356.002l-100 -182l70 1h69zM207 563.002l100 -72l13 -4c10 0 17 5.66699 21 17l2 10c0 4.66699 -2.33301 9.33398 -7 14.001l-54 37l-50 33l-12 4c-8 0 -14.333 -5.33301 -19 -16c-2 -8.66699 0 -16.334 6 -23.001z
" />
    <glyph glyph-name="Aacute" unicode="&#xc1;" horiz-adv-x="440" 
d="M405 128l-41 -4l25 -170c2 -18 -6 -27 -24 -27c-14.667 0 -23 7.33301 -25 22c-4.66699 42.667 -14 100.667 -28 174l-180 -4l-93 -180c-5.33301 -10 -12.666 -15 -21.999 -15c-6 0 -11.333 2 -16 6s-7.33398 9.66699 -8.00098 17l3 10l77 150c-6 2 -12 6.16699 -18 12.5
s-9.66699 12.833 -11 19.5c0 11.333 8.66699 19 26 23l31 4l140 271c5.33301 10.667 16.333 16 33 16c14.667 0 24 -6.66699 28 -20l32 -143l24 -120l46 3c16.667 2 25 -4.33301 25 -19c0 -13.333 -8 -22 -24 -26zM303 169c-4.66699 32 -9.33203 61.332 -13.999 87.999
s-12.667 66.334 -24 119.001c-10.667 -18 -47 -88.333 -109 -211h23h19h16h14h11c27.333 0 48.666 1.33301 63.999 4zM355.002 568.999c-30 -24 -64.334 -47.667 -103.001 -71l-7 -2c-5.33301 0 -10.666 2.66699 -15.999 8c-3.33301 4.66699 -5.66602 10 -6.99902 16
c1.33301 4.66699 2.66602 7.66699 3.99902 9c26.667 22.667 60.667 47 102 73l6 2c4.66699 0 10 -3 16 -9s9 -11.667 9 -17c0 -4 -1.33301 -7 -4 -9z" />
    <glyph glyph-name="Acircumflex" unicode="&#xc2;" horiz-adv-x="440" 
d="M405 128l-41 -4l25 -170c2 -18 -6 -27 -24 -27c-14.667 0 -23 7.33301 -25 22c-4.66699 42.667 -14 100.667 -28 174l-180 -4l-93 -180c-5.33301 -10 -12.666 -15 -21.999 -15c-6 0 -11.333 2 -16 6s-7.33398 9.66699 -8.00098 17l3 10l77 150c-6 2 -12 6.16699 -18 12.5
s-9.66699 12.833 -11 19.5c0 11.333 8.66699 19 26 23l31 4l140 271c5.33301 10.667 16.333 16 33 16c14.667 0 24 -6.66699 28 -20l32 -143l24 -120l46 3c16.667 2 25 -4.33301 25 -19c0 -13.333 -8 -22 -24 -26zM303 169c-4.66699 32 -9.33203 61.332 -13.999 87.999
s-12.667 66.334 -24 119.001c-10.667 -18 -47 -88.333 -109 -211h23h19h16h14h11c27.333 0 48.666 1.33301 63.999 4zM383.002 520.999l4.00098 -8.00195c0 -5.33301 -2.16699 -10.666 -6.5 -15.999s-9.5 -8.33301 -15.5 -9l-5 2c-42 34 -67.333 51 -76 51
c-6.66699 0 -34.334 -17.333 -83.001 -52l-6 -2c-4 0 -8.5 2.33301 -13.5 7s-7.5 9.33398 -7.5 14.001c0 3.33301 2 7 6 11c58.667 46.667 93.667 70 105 70s44 -22.667 98 -68z" />
    <glyph glyph-name="Atilde" unicode="&#xc3;" horiz-adv-x="450" 
d="M122 171l137 254.002c4 14 13.333 22.333 28 25c13.333 0 24 -8.66699 32 -26c9.33301 -28 28.333 -110 57 -246h39c14.667 0 25.667 -0.666992 33 -2s11 -9 11 -23s-7.33301 -22.333 -22 -25l-53 -2l10 -50c8.66699 -46.667 13 -82.667 13 -108
c0 -12.667 -2.66699 -21.667 -8 -27c-4 -6 -10.333 -9 -19 -9c-14 0 -22 7 -24 21l-25 170l-178 -4l-91 -177c-6.66699 -10.667 -14.334 -16 -23.001 -16c-6 0 -12 3 -18 9c-3.33301 4.66699 -5.66602 10.667 -6.99902 18c0 5.33301 1.33301 10.666 4 15.999l75 146
c-16 4 -24 12 -24 24c0 9.33301 6 18.666 18 27.999zM283 356.002l-100 -182l70 1h69zM396 513.002c-14.667 -18.667 -30.335 -27.9971 -47.002 -27.9971c-11.333 0 -26.333 8 -45 24s-33 25 -43 27c-11.333 0 -25.666 -12 -42.999 -36c-4 -2.66699 -7 -4.33398 -9 -5.00098
c-3.33301 0 -7.33301 2 -12 6s-7 10 -7 18c0 3.33301 2 8.66602 6 15.999c24 31.333 46.667 47 68 47c12.667 0 28.667 -8.66699 48 -26c18 -14.667 31 -23.334 39 -26.001c10 0 19.333 8.33301 28 25c2 4 5 6 9 6c6.66699 0 12.334 -4.66699 17.001 -14
c2 -10 -1 -21.333 -9 -34z" />
    <glyph glyph-name="Adieresis" unicode="&#xc4;" horiz-adv-x="450" 
d="M122 171l137 254.002c4 14 13.333 22.333 28 25c13.333 0 24 -8.66699 32 -26c9.33301 -28 28.333 -110 57 -246h39c14.667 0 25.667 -0.666992 33 -2s11 -9 11 -23s-7.33301 -22.333 -22 -25l-53 -2l10 -50c8.66699 -46.667 13 -82.667 13 -108
c0 -12.667 -2.66699 -21.667 -8 -27c-4 -6 -10.333 -9 -19 -9c-14 0 -22 7 -24 21l-25 170l-178 -4l-91 -177c-6.66699 -10.667 -14.334 -16 -23.001 -16c-6 0 -12 3 -18 9c-3.33301 4.66699 -5.66602 10.667 -6.99902 18c0 5.33301 1.33301 10.666 4 15.999l75 146
c-16 4 -24 12 -24 24c0 9.33301 6 18.666 18 27.999zM283 356.002l-100 -182l70 1h69zM256 486.002c-8 -6 -17.333 -8.99902 -28 -8.99902c-10 0 -19.333 1.66699 -28 5c-6 3.33301 -9 8.33301 -9 15c0 11.333 6.66699 23.666 20 36.999c4.66699 3.33301 13.667 6 27 8
c14 0 23.333 -4.66699 28 -14c2 -4 3 -8.66699 3 -14c0 -12 -4.33301 -21.333 -13 -28zM382 488.003c-8 -6 -17.333 -8.99902 -28 -8.99902c-10 0 -19.333 1.66699 -28 5c-6 3.33301 -9 8.33301 -9 15c0 11.333 6.66699 23.666 20 36.999c4.66699 3.33301 13.667 6 27 8
c14 0 23.333 -4.66699 28 -14c2 -4 3 -8.66699 3 -14c0 -12 -4.33301 -21.333 -13 -28z" />
    <glyph glyph-name="Aring" unicode="&#xc5;" horiz-adv-x="450" 
d="M122 171l137 254.002c4 14 13.333 22.333 28 25c13.333 0 24 -8.66699 32 -26c9.33301 -28 28.333 -110 57 -246h39c14.667 0 25.667 -0.666992 33 -2s11 -9 11 -23s-7.33301 -22.333 -22 -25l-53 -2l10 -50c8.66699 -46.667 13 -82.667 13 -108
c0 -12.667 -2.66699 -21.667 -8 -27c-4 -6 -10.333 -9 -19 -9c-14 0 -22 7 -24 21l-25 170l-178 -4l-91 -177c-6.66699 -10.667 -14.334 -16 -23.001 -16c-6 0 -12 3 -18 9c-3.33301 4.66699 -5.66602 10.667 -6.99902 18c0 5.33301 1.33301 10.666 4 15.999l75 146
c-16 4 -24 12 -24 24c0 9.33301 6 18.666 18 27.999zM283 356.002l-100 -182l70 1h69z" />
    <glyph glyph-name="AE" unicode="&#xc6;" horiz-adv-x="666" 
d="M427 388c38.667 11.333 77.334 20.6689 116.001 28.002c15.333 2.66699 32.5 5 51.5 7s35.5 3 49.5 3c14.667 0 22 -8.66699 22 -26c0 -16.667 -7 -25 -21 -25c-18.667 0 -52.5 -3.5 -101.5 -10.5s-92.5 -18.5 -130.5 -34.5l-8 -53l-9 -75
c102.667 20 188.334 44 257.001 72l13 3c11.333 0 20 -6.66699 26 -20c3.33301 -12 -1.33398 -21.333 -14.001 -28c-48 -22 -143 -49 -285 -81l-1 -59v-53l1 -36c0 -12.667 9 -19 27 -19l17 2c17.333 3.33301 33.666 7.66602 48.999 12.999c18 4 36.333 10.333 55 19
c30 12 51.333 23.333 64 34l14 5c9.33301 0 17.666 -5 24.999 -15l3 -12c0 -5.33301 -2.66699 -11.666 -8 -18.999c-10 -12 -39.667 -27.333 -89 -46c-54.667 -21.333 -99.667 -32 -135 -32c-15.333 0 -29.166 2.66699 -41.499 8s-21.833 15.666 -28.5 30.999l-6 27l-2 47
l3 96l-160 -19c-22.667 -31.333 -44.667 -65 -66 -101l-52 -81c-6 -10 -14.667 -15 -26 -15c-17.333 0 -26 7 -26 21c0 4 1.33301 8.66699 4 14l96 153l-17 -2c-20.667 0 -30 8.66699 -28 26c2 10 7 16.833 15 20.5s31.667 8.16699 71 13.5
c44 63.333 84.333 117.166 121 161.499s69 78.5 97 102.5c6 5.33301 15.333 9 28 11c22 0 33 -12.333 33 -37zM362 355.003c-26 -30.667 -72.333 -89.667 -139 -177l120 14v32.5c0 10.333 0.666992 19.833 2 28.5z" />
    <glyph glyph-name="Ccedilla" unicode="&#xc7;" horiz-adv-x="416" 
d="M299 454c6.66699 12.667 15.6689 18.9971 27.002 18.9971l16 -2c7.33301 -1.33301 11 -12.333 11 -33c0 -11.333 -3 -27 -9 -47l4 -24l1 -26c0 -53.333 -14.667 -96.666 -44 -129.999c-4.66699 -4.66699 -11.667 -8 -21 -10c-17.333 0 -26 10.333 -26 31l2 13
c18 76 27 124.333 27 145c0 4 -1.33301 7.66699 -4 11c-4.66699 2 -11.334 1.33301 -20.001 -2c-33.333 -12 -65.666 -48 -96.999 -108c-14.667 -30 -25.667 -59.167 -33 -87.5s-11 -56.833 -11 -85.5c0 -41.333 10 -73.666 30 -96.999c17.333 -18.667 41 -28 71 -28
c30.667 0 62.167 9.5 94.5 28.5s55.833 42.5 70.5 70.5c5.33301 10 12.666 15 21.999 15c7.33301 0 14.666 -4 21.999 -12c3.33301 -3.33301 5 -8.33301 5 -15c0 -4.66699 -0.666992 -8 -2 -10c-14 -35.333 -42.833 -65.666 -86.5 -90.999s-87.167 -38 -130.5 -38
c-50.667 0 -87.667 15.667 -111 47c-26 34 -39 78 -39 132c0 56 12.167 112.5 36.5 169.5s51.833 98.833 82.5 125.5c15.333 13.333 30.333 23.333 45 30s30 10 46 10zM182.002 -41.0029l-9.99902 -26l-7 -28c0 -8 5 -16.667 15 -26c9.33301 -6 14.666 -13 15.999 -21
c0 -12 -17.667 -23 -53 -33c-8 -2 -12 -7.33301 -12 -16c0 -14 8.66699 -21 26 -21c8 0 16.833 2 26.5 6s20.167 10.667 31.5 20c22 17.333 33 35 33 53c0 6.66699 -5.33301 14.5 -16 23.5s-16.667 16.167 -18 21.5l2 11l9 23c-22.667 10 -37 14.333 -43 13z" />
    <glyph glyph-name="Egrave" unicode="&#xc8;" horiz-adv-x="436" 
d="M424 238c-80.667 -31.333 -171.33 -57.6719 -271.997 -79.0049c-4.66699 -25.333 -8 -50.166 -10 -74.499s-3 -45.166 -3 -62.499c0 -23.333 8.33301 -35 25 -35c25.333 0 56.666 5.83301 93.999 17.5s69.333 26.834 96 45.501c2.66699 2 7.66699 3.66699 15 5
c6.66699 0 12.5 -2.33301 17.5 -7s7.83301 -10.667 8.5 -18c0 -5.33301 -2.33301 -10 -7 -14c-25.333 -18.667 -60 -35.667 -104 -51c-28 -10.667 -51.167 -18.334 -69.5 -23.001s-35.833 -7 -52.5 -7c-49.333 0 -74 26.333 -74 79c0 41.333 4 87 12 137l-17 -3
c-14 0 -21 7 -21 21c0 18.667 9 29.667 27 33l19 4c10.667 59.333 20.667 103.666 30 132.999l-18 -4c-13.333 0 -20 6 -20 18c0 21.333 17.333 35.333 52 42c2 8.66699 4.5 17.167 7.5 25.5s7.83301 19 14.5 32s16 19.5 28 19.5c8 0 13.333 -2.16699 16 -6.5
s4 -8.5 4 -12.5c0 -3.33301 -1 -7.66602 -3 -12.999l-12 -33c37.333 8.66699 71.666 15.834 102.999 21.501s57.666 8.5 78.999 8.5c19.333 0 29 -8 29 -24c0 -13.333 -7.66699 -21 -23 -23c-22 0 -54.5 -4.33301 -97.5 -13s-78.167 -17 -105.5 -25
c-15.333 -49.333 -26.333 -95.666 -33 -138.999c92 16 174.333 39.333 247 70l11 2c14.667 0 22 -8.33301 22 -25c0 -9.33301 -5 -16.666 -15 -21.999zM349.004 522.994l4 -8.99707c0 -5.33301 -2.16699 -10.333 -6.5 -15s-9.83301 -7.66699 -16.5 -9l-7 2
c-16 9.33301 -33.167 20.166 -51.5 32.499s-35.5 25.166 -51.5 38.499l-4 9c0 5.33301 2.83301 11 8.5 17s11.167 9 16.5 9c3.33301 -0.666992 5.33301 -1.33398 6 -2.00098c40.667 -24.667 74.667 -49 102 -73z" />
    <glyph glyph-name="Eacute" unicode="&#xc9;" horiz-adv-x="420" 
d="M219 409l97.9961 19.002l48 6l34 1c17.333 -2 26 -10.333 26 -25s-8.66699 -23.334 -26 -26.001c-34 0 -67.667 -3.16699 -101 -9.5s-66.666 -14.5 -99.999 -24.5c-15.333 -62.667 -25.333 -108 -30 -136c72.667 13.333 154.334 36.666 245.001 69.999l11 2
c12 0 19 -6.66699 21 -20s-2.33301 -22.333 -13 -27c-36.667 -15.333 -84 -31.333 -142 -48l-69 -18l-63 -13c-8 -63.333 -12 -109.666 -12 -138.999c0 -21.333 10.667 -32 32 -32c56 7.33301 117.333 30.666 184 69.999l13 4c10.667 0 18.334 -6.33301 23.001 -19
c4 -12 -0.333008 -22.667 -13 -32c-24 -16 -57.5 -32.167 -100.5 -48.5s-81.167 -24.5 -114.5 -24.5c-26 0 -45 5.66699 -57 17s-18 34.666 -18 69.999c0 30 3.66699 71 11 123c-20 4 -29 14.333 -27 31c2 10 14 18.667 36 26c4 34 12 77 24 129
c-7.33301 -1.33301 -13.166 0 -17.499 4s-6.5 11 -6.5 21c2 10.667 17.667 21.334 47 32.001c3.33301 17.333 8.33301 36.333 15 57c4 12.667 13.667 19 29 19c14.667 0 22 -7.33301 22 -22l-3 -16zM400.996 541.002l-100 -72l-13 -4c-6 0 -11.667 2.66699 -17 8
c-4 6 -6 12.333 -6 19c0 4.66699 2.33301 9.33398 7 14.001l54 37l50 33l12 4c8 0 14.333 -5.33301 19 -16c2 -8.66699 0 -16.334 -6 -23.001z" />
    <glyph glyph-name="Ecircumflex" unicode="&#xca;" horiz-adv-x="436" 
d="M424 238c-80.667 -31.333 -171.33 -57.6719 -271.997 -79.0049c-4.66699 -25.333 -8 -50.166 -10 -74.499s-3 -45.166 -3 -62.499c0 -23.333 8.33301 -35 25 -35c25.333 0 56.666 5.83301 93.999 17.5s69.333 26.834 96 45.501c2.66699 2 7.66699 3.66699 15 5
c6.66699 0 12.5 -2.33301 17.5 -7s7.83301 -10.667 8.5 -18c0 -5.33301 -2.33301 -10 -7 -14c-25.333 -18.667 -60 -35.667 -104 -51c-28 -10.667 -51.167 -18.334 -69.5 -23.001s-35.833 -7 -52.5 -7c-49.333 0 -74 26.333 -74 79c0 41.333 4 87 12 137l-17 -3
c-14 0 -21 7 -21 21c0 18.667 9 29.667 27 33l19 4c10.667 59.333 20.667 103.666 30 132.999l-18 -4c-13.333 0 -20 6 -20 18c0 21.333 17.333 35.333 52 42c2 8.66699 4.5 17.167 7.5 25.5s7.83301 19 14.5 32s16 19.5 28 19.5c8 0 13.333 -2.16699 16 -6.5
s4 -8.5 4 -12.5c0 -3.33301 -1 -7.66602 -3 -12.999l-12 -33c37.333 8.66699 71.666 15.834 102.999 21.501s57.666 8.5 78.999 8.5c19.333 0 29 -8 29 -24c0 -13.333 -7.66699 -21 -23 -23c-22 0 -54.5 -4.33301 -97.5 -13s-78.167 -17 -105.5 -25
c-15.333 -49.333 -26.333 -95.666 -33 -138.999c92 16 174.333 39.333 247 70l11 2c14.667 0 22 -8.33301 22 -25c0 -9.33301 -5 -16.666 -15 -21.999zM416.004 529.994l4.00098 -8.00195c0 -5.33301 -2.16699 -10.666 -6.5 -15.999s-9.5 -8.33301 -15.5 -9l-5 2
c-42 34 -67.333 51 -76 51c-6.66699 0 -34.334 -17.333 -83.001 -52l-6 -2c-4 0 -8.5 2.33301 -13.5 7s-7.5 9.33398 -7.5 14.001c0 3.33301 2 7 6 11c58.667 46.667 93.667 70 105 70s44 -22.667 98 -68z" />
    <glyph glyph-name="Edieresis" unicode="&#xcb;" horiz-adv-x="436" 
d="M424 238c-80.667 -31.333 -171.33 -57.6719 -271.997 -79.0049c-4.66699 -25.333 -8 -50.166 -10 -74.499s-3 -45.166 -3 -62.499c0 -23.333 8.33301 -35 25 -35c25.333 0 56.666 5.83301 93.999 17.5s69.333 26.834 96 45.501c2.66699 2 7.66699 3.66699 15 5
c6.66699 0 12.5 -2.33301 17.5 -7s7.83301 -10.667 8.5 -18c0 -5.33301 -2.33301 -10 -7 -14c-25.333 -18.667 -60 -35.667 -104 -51c-28 -10.667 -51.167 -18.334 -69.5 -23.001s-35.833 -7 -52.5 -7c-49.333 0 -74 26.333 -74 79c0 41.333 4 87 12 137l-17 -3
c-14 0 -21 7 -21 21c0 18.667 9 29.667 27 33l19 4c10.667 59.333 20.667 103.666 30 132.999l-18 -4c-13.333 0 -20 6 -20 18c0 21.333 17.333 35.333 52 42c2 8.66699 4.5 17.167 7.5 25.5s7.83301 19 14.5 32s16 19.5 28 19.5c8 0 13.333 -2.16699 16 -6.5
s4 -8.5 4 -12.5c0 -3.33301 -1 -7.66602 -3 -12.999l-12 -33c37.333 8.66699 71.666 15.834 102.999 21.501s57.666 8.5 78.999 8.5c19.333 0 29 -8 29 -24c0 -13.333 -7.66699 -21 -23 -23c-22 0 -54.5 -4.33301 -97.5 -13s-78.167 -17 -105.5 -25
c-15.333 -49.333 -26.333 -95.666 -33 -138.999c92 16 174.333 39.333 247 70l11 2c14.667 0 22 -8.33301 22 -25c0 -9.33301 -5 -16.666 -15 -21.999zM422.004 530.994c0 -10.667 -7.33301 -19.333 -22 -26c-5.33301 -2 -13.666 -3.66699 -24.999 -5
c-8.66699 0 -16.334 1.83301 -23.001 5.5s-10.667 9.5 -12 17.5c0 8 6.16699 16 18.5 24s23.833 12 34.5 12c19.333 0 29 -9.33301 29 -28zM292.004 548.995l3 -13c0 -12.667 -6 -22.667 -18 -30c-12 -6 -24 -9 -36 -9c-18.667 0 -28 7 -28 21c0 12 6.66699 23.333 20 34
c11.333 6 22.333 9 33 9c10 0 18.667 -4 26 -12z" />
    <glyph glyph-name="Igrave" unicode="&#xcc;" horiz-adv-x="269" 
d="M285 403c-14.667 -4 -36.6709 -8.00195 -66.0039 -12.002c-5.33301 -47.333 -13.666 -103.166 -24.999 -167.499s-25.666 -134.833 -42.999 -211.5c8.66699 0 23 3 43 9l38 8c13.333 0 20 -6 20 -18c0 -14.667 -9.33301 -25 -28 -31
c-53.333 -14.667 -91.333 -24 -114 -28s-45 -6 -67 -6c-14 0 -23.167 1.83301 -27.5 5.5s-7.16602 9.83398 -8.49902 18.501c0 14.667 10.833 23 32.5 25s42.5 5.33301 62.5 10l40 202c7.33301 37.333 12.833 69.333 16.5 96s6.83398 54 9.50098 82
c-10 -2.66699 -22 -5 -36 -7s-27.333 -3 -40 -3c-19.333 0 -29 8 -29 24c0 13.333 8.33301 21 25 23c30 0 58.833 2.16699 86.5 6.5s61.167 10.833 100.5 19.5c8.66699 2 16.167 0.833008 22.5 -3.5s9.83301 -9.83301 10.5 -16.5c0 -12 -7.66699 -20.333 -23 -25z
M240.996 525.998l4 -8.99707c0 -5.33301 -2.16699 -10.333 -6.5 -15s-9.83301 -7.66699 -16.5 -9l-7 2c-16 9.33301 -33.167 20.166 -51.5 32.499s-35.5 25.166 -51.5 38.499l-4 9c0 5.33301 2.83301 11 8.5 17s11.167 9 16.5 9
c3.33301 -0.666992 5.33301 -1.33398 6 -2.00098c40.667 -24.667 74.667 -49 102 -73z" />
    <glyph glyph-name="Iacute" unicode="&#xcd;" horiz-adv-x="269" 
d="M285 403c-14.667 -4 -36.6709 -8.00195 -66.0039 -12.002c-5.33301 -47.333 -13.666 -103.166 -24.999 -167.499s-25.666 -134.833 -42.999 -211.5c8.66699 0 23 3 43 9l38 8c13.333 0 20 -6 20 -18c0 -14.667 -9.33301 -25 -28 -31
c-53.333 -14.667 -91.333 -24 -114 -28s-45 -6 -67 -6c-14 0 -23.167 1.83301 -27.5 5.5s-7.16602 9.83398 -8.49902 18.501c0 14.667 10.833 23 32.5 25s42.5 5.33301 62.5 10l40 202c7.33301 37.333 12.833 69.333 16.5 96s6.83398 54 9.50098 82
c-10 -2.66699 -22 -5 -36 -7s-27.333 -3 -40 -3c-19.333 0 -29 8 -29 24c0 13.333 8.33301 21 25 23c30 0 58.833 2.16699 86.5 6.5s61.167 10.833 100.5 19.5c8.66699 2 16.167 0.833008 22.5 -3.5s9.83301 -9.83301 10.5 -16.5c0 -12 -7.66699 -20.333 -23 -25z
M279.996 559.998c-30 -24 -64.334 -47.667 -103.001 -71l-7 -2c-5.33301 0 -10.666 2.66699 -15.999 8c-3.33301 4.66699 -5.66602 10 -6.99902 16c1.33301 4.66699 2.66602 7.66699 3.99902 9c26.667 22.667 60.667 47 102 73l6 2c4.66699 0 10 -3 16 -9s9 -11.667 9 -17
c0 -4 -1.33301 -7 -4 -9z" />
    <glyph glyph-name="Icircumflex" unicode="&#xce;" horiz-adv-x="269" 
d="M285 403c-14.667 -4 -36.6709 -8.00195 -66.0039 -12.002c-5.33301 -47.333 -13.666 -103.166 -24.999 -167.499s-25.666 -134.833 -42.999 -211.5c8.66699 0 23 3 43 9l38 8c13.333 0 20 -6 20 -18c0 -14.667 -9.33301 -25 -28 -31
c-53.333 -14.667 -91.333 -24 -114 -28s-45 -6 -67 -6c-14 0 -23.167 1.83301 -27.5 5.5s-7.16602 9.83398 -8.49902 18.501c0 14.667 10.833 23 32.5 25s42.5 5.33301 62.5 10l40 202c7.33301 37.333 12.833 69.333 16.5 96s6.83398 54 9.50098 82
c-10 -2.66699 -22 -5 -36 -7s-27.333 -3 -40 -3c-19.333 0 -29 8 -29 24c0 13.333 8.33301 21 25 23c30 0 58.833 2.16699 86.5 6.5s61.167 10.833 100.5 19.5c8.66699 2 16.167 0.833008 22.5 -3.5s9.83301 -9.83301 10.5 -16.5c0 -12 -7.66699 -20.333 -23 -25z
M301.996 532.998l4.00098 -8.00195c0 -5.33301 -2.16699 -10.666 -6.5 -15.999s-9.5 -8.33301 -15.5 -9l-5 2c-42 34 -67.333 51 -76 51c-6.66699 0 -34.334 -17.333 -83.001 -52l-6 -2c-4 0 -8.5 2.33301 -13.5 7s-7.5 9.33398 -7.5 14.001c0 3.33301 2 7 6 11
c58.667 46.667 93.667 70 105 70s44 -22.667 98 -68z" />
    <glyph glyph-name="Idieresis" unicode="&#xcf;" horiz-adv-x="269" 
d="M285 403c-14.667 -4 -36.6709 -8.00195 -66.0039 -12.002c-5.33301 -47.333 -13.666 -103.166 -24.999 -167.499s-25.666 -134.833 -42.999 -211.5c8.66699 0 23 3 43 9l38 8c13.333 0 20 -6 20 -18c0 -14.667 -9.33301 -25 -28 -31
c-53.333 -14.667 -91.333 -24 -114 -28s-45 -6 -67 -6c-14 0 -23.167 1.83301 -27.5 5.5s-7.16602 9.83398 -8.49902 18.501c0 14.667 10.833 23 32.5 25s42.5 5.33301 62.5 10l40 202c7.33301 37.333 12.833 69.333 16.5 96s6.83398 54 9.50098 82
c-10 -2.66699 -22 -5 -36 -7s-27.333 -3 -40 -3c-19.333 0 -29 8 -29 24c0 13.333 8.33301 21 25 23c30 0 58.833 2.16699 86.5 6.5s61.167 10.833 100.5 19.5c8.66699 2 16.167 0.833008 22.5 -3.5s9.83301 -9.83301 10.5 -16.5c0 -12 -7.66699 -20.333 -23 -25z
M295.996 524.998c0 -10.667 -7.33301 -19.333 -22 -26c-5.33301 -2 -13.666 -3.66699 -24.999 -5c-8.66699 0 -16.334 1.83301 -23.001 5.5s-10.667 9.5 -12 17.5c0 8 6.16699 16 18.5 24s23.833 12 34.5 12c19.333 0 29 -9.33301 29 -28zM165.996 542.999l3 -13
c0 -12.667 -6 -22.667 -18 -30c-12 -6 -24 -9 -36 -9c-18.667 0 -28 7 -28 21c0 12 6.66699 23.333 20 34c11.333 6 22.333 9 33 9c10 0 18.667 -4 26 -12z" />
    <glyph glyph-name="Ntilde" unicode="&#xd1;" horiz-adv-x="460" 
d="M184 351l80.999 -161c34.667 -66 62 -113.667 82 -143c1.33301 -3.33301 4.33301 -6 9 -8l4 4l5 10c15.333 46 34.5 113.833 57.5 203.5s38.833 163.834 47.5 222.501c2 14 11 21 27 21c17.333 0 26 -9 26 -27c0 -14.667 -4.33301 -40.334 -13 -77.001
c-3.33301 -16.667 -8 -37.167 -14 -61.5l-23 -89.5c-33.333 -135.333 -59.666 -220.333 -78.999 -255c-8 -16 -19.333 -24 -34 -24c-8.66699 0 -15.667 2.66699 -21 8c-24 20 -56 67.333 -96 142l-80 158c-36 -146 -65 -251 -87 -315c-3.33301 -9.33301 -10 -14 -20 -14
c-7.33301 0 -13.333 2.16699 -18 6.5s-8 11.833 -10 22.5l2 11l54 189l43 167c-6 10 -9 19.333 -9 28c0 6 2.66699 11.333 8 16l30 23c2 2 5 3 9 3c12.667 0 21 -5 25 -15l1 -12c0 -10.667 -2.33301 -21.667 -7 -33zM423.999 479
c-14.667 -18.667 -30.335 -27.9971 -47.002 -27.9971c-11.333 0 -26.333 8 -45 24s-33 25 -43 27c-11.333 0 -25.666 -12 -42.999 -36c-4 -2.66699 -7 -4.33398 -9 -5.00098c-3.33301 0 -7.33301 2 -12 6s-7 10 -7 18c0 3.33301 2 8.66602 6 15.999
c24 31.333 46.667 47 68 47c12.667 0 28.667 -8.66699 48 -26c18 -14.667 31 -23.334 39 -26.001c10 0 19.333 8.33301 28 25c2 4 5 6 9 6c6.66699 0 12.334 -4.66699 17.001 -14c2 -10 -1 -21.333 -9 -34z" />
    <glyph glyph-name="Ograve" unicode="&#xd2;" horiz-adv-x="492" 
d="M485 212c-12 -69.333 -44.335 -130.334 -97.002 -183.001s-108.667 -79 -168 -79c-53.333 0 -94.166 14.833 -122.499 44.5s-42.5 69.834 -42.5 120.501c0 41.333 6.33301 82.333 19 123s30.667 79.667 54 117l-4 13c0 8 5.33301 17.667 16 29c42 42 99.667 63 173 63
c42.667 0 80.334 -12.333 113.001 -37c43.333 -32 65 -81.333 65 -148c0 -20 -2 -41 -6 -63zM431.998 217.999c3.33301 18.667 5 35 5 49c0 40.667 -11 73.5 -33 98.5s-52 39.5 -90 43.5c-11.333 0 -21.166 -0.5 -29.499 -1.5s-20.333 -3.33301 -36 -7
s-29.834 -11.5 -42.501 -23.5c-24 -22 -46.333 -61 -67 -117s-31 -104.333 -31 -145c0 -41.333 12.667 -72.333 38 -93c19.333 -14 44.333 -21 75 -21c48 4 92.167 26.5 132.5 67.5s66.5 90.833 78.5 149.5zM387.998 537.999l4 -8.99707
c0 -5.33301 -2.16699 -10.333 -6.5 -15s-9.83301 -7.66699 -16.5 -9l-7 2c-16 9.33301 -33.167 20.166 -51.5 32.499s-35.5 25.166 -51.5 38.499l-4 9c0 5.33301 2.83301 11 8.5 17s11.167 9 16.5 9c3.33301 -0.666992 5.33301 -1.33398 6 -2.00098
c40.667 -24.667 74.667 -49 102 -73z" />
    <glyph glyph-name="Oacute" unicode="&#xd3;" horiz-adv-x="492" 
d="M485 212c-12 -69.333 -44.335 -130.334 -97.002 -183.001s-108.667 -79 -168 -79c-53.333 0 -94.166 14.833 -122.499 44.5s-42.5 69.834 -42.5 120.501c0 41.333 6.33301 82.333 19 123s30.667 79.667 54 117l-4 13c0 8 5.33301 17.667 16 29c42 42 99.667 63 173 63
c42.667 0 80.334 -12.333 113.001 -37c43.333 -32 65 -81.333 65 -148c0 -20 -2 -41 -6 -63zM431.998 217.999c3.33301 18.667 5 35 5 49c0 40.667 -11 73.5 -33 98.5s-52 39.5 -90 43.5c-11.333 0 -21.166 -0.5 -29.499 -1.5s-20.333 -3.33301 -36 -7
s-29.834 -11.5 -42.501 -23.5c-24 -22 -46.333 -61 -67 -117s-31 -104.333 -31 -145c0 -41.333 12.667 -72.333 38 -93c19.333 -14 44.333 -21 75 -21c48 4 92.167 26.5 132.5 67.5s66.5 90.833 78.5 149.5zM420.998 577.999c-30 -24 -64.334 -47.667 -103.001 -71l-7 -2
c-5.33301 0 -10.666 2.66699 -15.999 8c-3.33301 4.66699 -5.66602 10 -6.99902 16c1.33301 4.66699 2.66602 7.66699 3.99902 9c26.667 22.667 60.667 47 102 73l6 2c4.66699 0 10 -3 16 -9s9 -11.667 9 -17c0 -4 -1.33301 -7 -4 -9z" />
    <glyph glyph-name="Ocircumflex" unicode="&#xd4;" horiz-adv-x="492" 
d="M485 212c-12 -69.333 -44.335 -130.334 -97.002 -183.001s-108.667 -79 -168 -79c-53.333 0 -94.166 14.833 -122.499 44.5s-42.5 69.834 -42.5 120.501c0 41.333 6.33301 82.333 19 123s30.667 79.667 54 117l-4 13c0 8 5.33301 17.667 16 29c42 42 99.667 63 173 63
c42.667 0 80.334 -12.333 113.001 -37c43.333 -32 65 -81.333 65 -148c0 -20 -2 -41 -6 -63zM431.998 217.999c3.33301 18.667 5 35 5 49c0 40.667 -11 73.5 -33 98.5s-52 39.5 -90 43.5c-11.333 0 -21.166 -0.5 -29.499 -1.5s-20.333 -3.33301 -36 -7
s-29.834 -11.5 -42.501 -23.5c-24 -22 -46.333 -61 -67 -117s-31 -104.333 -31 -145c0 -41.333 12.667 -72.333 38 -93c19.333 -14 44.333 -21 75 -21c48 4 92.167 26.5 132.5 67.5s66.5 90.833 78.5 149.5zM421.998 532.999l4.00098 -8.00195
c0 -5.33301 -2.16699 -10.666 -6.5 -15.999s-9.5 -8.33301 -15.5 -9l-5 2c-42 34 -67.333 51 -76 51c-6.66699 0 -34.334 -17.333 -83.001 -52l-6 -2c-4 0 -8.5 2.33301 -13.5 7s-7.5 9.33398 -7.5 14.001c0 3.33301 2 7 6 11c58.667 46.667 93.667 70 105 70
s44 -22.667 98 -68z" />
    <glyph glyph-name="Otilde" unicode="&#xd5;" horiz-adv-x="480" 
d="M432 519c-14.667 -18.667 -30.335 -27.9971 -47.002 -27.9971c-11.333 0 -26.333 8 -45 24s-33 25 -43 27c-11.333 0 -25.666 -12 -42.999 -36c-4 -2.66699 -7 -4.33398 -9 -5.00098c-3.33301 0 -7.33301 2 -12 6s-7 10 -7 18c0 3.33301 2 8.66602 6 15.999
c24 31.333 46.667 47 68 47c12.667 0 28.667 -8.66699 48 -26c18 -14.667 31 -23.334 39 -26.001c10 0 19.333 8.33301 28 25c2 4 5 6 9 6c6.66699 0 12.334 -4.66699 17.001 -14c2 -10 -1 -21.333 -9 -34zM156.999 395.003c53.333 42 105.667 63 157 63
c38.667 0 76 -14 112 -42c46 -37.333 69 -90.333 69 -159c0 -52.667 -17 -107 -51 -163c-28 -44.667 -63.667 -80.334 -107 -107.001c-40 -24 -80.333 -36 -121 -36c-28.667 0 -56 7 -82 21c-48.667 28.667 -73 73 -73 133c0 58.667 22.667 137.334 68 236.001l9 30
c0 6 6.33301 14 19 24zM183 331.003c-45.333 -86.667 -68.001 -159 -68.001 -217c0 -56 20 -90.667 60 -104c14 -4 28.667 -6 44 -6c54 0 108.333 31.333 163 94c40 46 60 97 60 153c0 40 -10.667 74 -32 102s-49.666 45 -84.999 51l-14 1
c-32.667 0 -67.667 -13.333 -105 -40l-10 -20z" />
    <glyph glyph-name="Odieresis" unicode="&#xd6;" horiz-adv-x="480" 
d="M157 395c53.333 42 105.667 63 157 63c38.667 0 76 -14 112 -42c46 -37.333 69 -90.333 69 -159c0 -52.667 -17 -107 -51 -163c-28 -44.667 -63.667 -80.334 -107 -107.001c-40 -24 -80.333 -36 -121 -36c-28.667 0 -56 7 -82 21c-48.667 28.667 -73 73 -73 133
c0 58.667 22.667 137.334 68 236.001l9 30c0 6 6.33301 14 19 24zM183.001 331c-45.333 -86.667 -68.001 -159 -68.001 -217c0 -56 20 -90.667 60 -104c14 -4 28.667 -6 44 -6c54 0 108.333 31.333 163 94c40 46 60 97 60 153c0 40 -10.667 74 -32 102
s-49.666 45 -84.999 51l-14 1c-32.667 0 -67.667 -13.333 -105 -40l-10 -20zM298 500c-8 -6 -17.333 -8.99902 -28 -8.99902c-10 0 -19.333 1.66699 -28 5c-6 3.33301 -9 8.33301 -9 15c0 11.333 6.66699 23.666 20 36.999c4.66699 3.33301 13.667 6 27 8
c14 0 23.333 -4.66699 28 -14c2 -4 3 -8.66699 3 -14c0 -12 -4.33301 -21.333 -13 -28zM424 502.001c-8 -6 -17.333 -8.99902 -28 -8.99902c-10 0 -19.333 1.66699 -28 5c-6 3.33301 -9 8.33301 -9 15c0 11.333 6.66699 23.666 20 36.999c4.66699 3.33301 13.667 6 27 8
c14 0 23.333 -4.66699 28 -14c2 -4 3 -8.66699 3 -14c0 -12 -4.33301 -21.333 -13 -28z" />
    <glyph glyph-name="Ugrave" unicode="&#xd9;" horiz-adv-x="467" 
d="M459 398c-5.33301 -44 -21.666 -98 -48.999 -162c-7.33301 -54 -11 -134.333 -11 -241c0 -18.667 -8.66699 -28 -26 -28c-15.333 0 -23 9 -23 27c0 19.333 0.333008 34.666 1 45.999c3.33301 58 5 93 5 105c-60 -97.333 -116 -162.333 -168 -195
c-18 -12 -36.667 -18 -56 -18c-36.667 0 -58 19.667 -64 59l-3 40c0 56 14 128 42 216l58 171c5.33301 18 15.666 27 30.999 27c17.333 0 26 -8.33301 26 -25l-3 -13l-66 -190c-23.333 -75.333 -35 -135.666 -35 -180.999c0 -13.333 0.833008 -25.333 2.5 -36
s9.16699 -16 22.5 -16c8 0 16.333 2.66699 25 8c27.333 15.333 60 48.666 98 99.999c41.333 54.667 73.333 110 96 166c12 76.667 25.667 129.334 41 158.001c10 20 21.333 30 34 30c8 0 13.667 -3.5 17 -10.5s5 -19.5 5 -37.5zM379 511l4 -8.99707
c0 -5.33301 -2.16699 -10.333 -6.5 -15s-9.83301 -7.66699 -16.5 -9l-7 2c-16 9.33301 -33.167 20.166 -51.5 32.499s-35.5 25.166 -51.5 38.499l-4 9c0 5.33301 2.83301 11 8.5 17s11.167 9 16.5 9c3.33301 -0.666992 5.33301 -1.33398 6 -2.00098
c40.667 -24.667 74.667 -49 102 -73z" />
    <glyph glyph-name="Uacute" unicode="&#xda;" horiz-adv-x="467" 
d="M459 398c-5.33301 -44 -21.666 -98 -48.999 -162c-7.33301 -54 -11 -134.333 -11 -241c0 -18.667 -8.66699 -28 -26 -28c-15.333 0 -23 9 -23 27c0 19.333 0.333008 34.666 1 45.999c3.33301 58 5 93 5 105c-60 -97.333 -116 -162.333 -168 -195
c-18 -12 -36.667 -18 -56 -18c-36.667 0 -58 19.667 -64 59l-3 40c0 56 14 128 42 216l58 171c5.33301 18 15.666 27 30.999 27c17.333 0 26 -8.33301 26 -25l-3 -13l-66 -190c-23.333 -75.333 -35 -135.666 -35 -180.999c0 -13.333 0.833008 -25.333 2.5 -36
s9.16699 -16 22.5 -16c8 0 16.333 2.66699 25 8c27.333 15.333 60 48.666 98 99.999c41.333 54.667 73.333 110 96 166c12 76.667 25.667 129.334 41 158.001c10 20 21.333 30 34 30c8 0 13.667 -3.5 17 -10.5s5 -19.5 5 -37.5zM406 530
c-30 -24 -64.334 -47.667 -103.001 -71l-7 -2c-5.33301 0 -10.666 2.66699 -15.999 8c-3.33301 4.66699 -5.66602 10 -6.99902 16c1.33301 4.66699 2.66602 7.66699 3.99902 9c26.667 22.667 60.667 47 102 73l6 2c4.66699 0 10 -3 16 -9s9 -11.667 9 -17
c0 -4 -1.33301 -7 -4 -9z" />
    <glyph glyph-name="Ucircumflex" unicode="&#xdb;" horiz-adv-x="467" 
d="M459 398c-5.33301 -44 -21.666 -98 -48.999 -162c-7.33301 -54 -11 -134.333 -11 -241c0 -18.667 -8.66699 -28 -26 -28c-15.333 0 -23 9 -23 27c0 19.333 0.333008 34.666 1 45.999c3.33301 58 5 93 5 105c-60 -97.333 -116 -162.333 -168 -195
c-18 -12 -36.667 -18 -56 -18c-36.667 0 -58 19.667 -64 59l-3 40c0 56 14 128 42 216l58 171c5.33301 18 15.666 27 30.999 27c17.333 0 26 -8.33301 26 -25l-3 -13l-66 -190c-23.333 -75.333 -35 -135.666 -35 -180.999c0 -13.333 0.833008 -25.333 2.5 -36
s9.16699 -16 22.5 -16c8 0 16.333 2.66699 25 8c27.333 15.333 60 48.666 98 99.999c41.333 54.667 73.333 110 96 166c12 76.667 25.667 129.334 41 158.001c10 20 21.333 30 34 30c8 0 13.667 -3.5 17 -10.5s5 -19.5 5 -37.5zM428 524l4.00098 -8.00195
c0 -5.33301 -2.16699 -10.666 -6.5 -15.999s-9.5 -8.33301 -15.5 -9l-5 2c-42 34 -67.333 51 -76 51c-6.66699 0 -34.334 -17.333 -83.001 -52l-6 -2c-4 0 -8.5 2.33301 -13.5 7s-7.5 9.33398 -7.5 14.001c0 3.33301 2 7 6 11c58.667 46.667 93.667 70 105 70
s44 -22.667 98 -68z" />
    <glyph glyph-name="Udieresis" unicode="&#xdc;" horiz-adv-x="480" 
d="M308 496c-8 -6 -17.333 -8.99902 -28 -8.99902c-10 0 -19.333 1.66699 -28 5c-6 3.33301 -9 8.33301 -9 15c0 11.333 6.66699 23.666 20 36.999c4.66699 3.33301 13.667 6 27 8c14 0 23.333 -4.66699 28 -14c2 -4 3 -8.66699 3 -14c0 -12 -4.33301 -21.333 -13 -28z
M434 498.001c-8 -6 -17.333 -8.99902 -28 -8.99902c-10 0 -19.333 1.66699 -28 5c-6 3.33301 -9 8.33301 -9 15c0 11.333 6.66699 23.666 20 36.999c4.66699 3.33301 13.667 6 27 8c14 0 23.333 -4.66699 28 -14c2 -4 3 -8.66699 3 -14c0 -12 -4.33301 -21.333 -13 -28z
M361 122.002c-32 -52 -68.332 -96.3291 -108.999 -132.996s-76.334 -55 -107.001 -55c-12.667 0 -22.667 2.66699 -30 8c-22 13.333 -33 42 -33 86c0 13.333 0.666992 26.166 2 38.499s4.16602 28.333 8.49902 48s10.166 42.5 17.499 68.5s17 58 29 96l45 142
c2 9.33301 9.66699 14 23 14c8 0 14.333 -1.83301 19 -5.5s7.66699 -10.167 9 -19.5l-31 -106l-22 -65l-20 -73l-15 -63c-3.33301 -16.667 -6 -33.5 -8 -50.5s-3 -31.833 -3 -44.5s4 -20 12 -22c6.66699 1.33301 10.667 2.66602 12 3.99902c50.667 26 97.667 71.333 141 136
c22 32.667 40.5 66.334 55.5 101.001s27.167 72 36.5 112l3 43c0 15.333 4.83301 29 14.5 41s19.834 18 30.501 18c7.33301 0 13.833 -2.83301 19.5 -8.5s8.5 -13.834 8.5 -24.501l-31 -108c-17.333 -70.667 -26 -147.334 -26 -230.001v-33c0 -14 0.666992 -25.333 2 -34
c0 -6.66699 -2.66699 -13.334 -8 -20.001s-12.666 -11 -21.999 -13c-11.333 0 -18.333 7.33301 -21 22l-4 53l1 37z" />
    <glyph glyph-name="germandbls" unicode="&#xdf;" horiz-adv-x="364" 
d="M43 -58c18 162.667 34.6699 261.168 50.0029 295.501s40 60.833 74 79.5c6.66699 3.33301 12.167 5.66602 16.5 6.99902s13.166 3.66602 26.499 6.99902c15.333 2.66699 27 4.16699 35 4.5s14.333 0.5 19 0.5c11.333 0 21.166 -1.66699 29.499 -5
s17.833 -9.66602 28.5 -18.999c14 -13.333 21 -28.333 21 -45c0 -12 -4 -23 -12 -33c-17.333 -21.333 -50 -40.333 -98 -57c-4 -1.33301 -6 -3.66602 -6 -6.99902l6 -4c58.667 0 96.667 -10.667 114 -32c8.66699 -10.667 13 -23 13 -37
c0 -26.667 -13.333 -54.334 -40 -83.001s-60.334 -48.334 -101.001 -59.001l-27 -4c-16.667 0 -28.667 4.66699 -36 14c-6.66699 6.66699 -10 17.334 -10 32.001c2 16 11.333 24 28 24c10 0 16 -5 18 -15c20.667 -2 43 6.66699 67 26c20 16 34 31.333 42 46l4 16
c0 12.667 -8.66699 19 -26 19l-72 4c-17.333 2.66699 -30 9 -38 19c-5.33301 8.66699 -8.66602 17.667 -9.99902 27c0 20 13.333 37.333 40 52l60 30c18 9.33301 27 16.666 27 21.999c0 4 -4.83301 8 -14.5 12s-19.167 6 -28.5 6c-12.667 0 -23.667 -1.66699 -33 -5
s-15.666 -6.16602 -18.999 -8.49902s-8.33301 -6.5 -15 -12.5c-14 -13.333 -24.667 -28.666 -32 -45.999c-4.66699 -11.333 -12.334 -41.333 -23.001 -90l-26 -180c-2 -18.667 -11.333 -28 -28 -28c-6 0 -11.333 2.16699 -16 6.5s-7.33398 11.166 -8.00098 20.499z" />
    <glyph glyph-name="agrave" unicode="&#xe0;" horiz-adv-x="348" 
d="M269 66c-70.667 -55.333 -132.001 -83.002 -184.001 -83.002c-20.667 0 -37 5.66699 -49 17c-11.333 12.667 -17 27.334 -17 44.001c0 23.333 9.66699 47 29 71c16.667 21.333 43 45.333 79 72c17.333 12.667 33.5 23.5 48.5 32.5s28.833 15.833 41.5 20.5l18 4l18 4
c12 0 22.667 -4.66699 32 -14c30 -30 45 -61 45 -93c0 -7.33301 -0.666992 -12.666 -2 -15.999l6 -53l3 -32c2 -7.33301 4.83301 -12.5 8.5 -15.5s5.83398 -7.5 6.50098 -13.5c0 -6 -3.5 -12.167 -10.5 -18.5s-14.5 -8.5 -22.5 -6.5c-12 4 -21.667 14 -29 30l-5 39
c0 8.66699 -2 14 -6 16zM237.999 190.998c-30 -10 -65.499 -32.5 -106.499 -67.5s-61.5 -60.5 -61.5 -76.5c0 -6 5.33301 -9.33301 16 -10c47.333 0 108.666 33 183.999 99c2 2 3.66699 6 5 12l-3 13l-16 27c-1.33301 2 -4.33301 3.66699 -9 5zM149 374.998l100 -72l13 -4
c10 0 17 5.66699 21 17l2 10c0 4.66699 -2.33301 9.33398 -7 14.001l-54 37l-50 33l-12 4c-8 0 -14.333 -5.33301 -19 -16c-2 -8.66699 0 -16.334 6 -23.001z" />
    <glyph glyph-name="aacute" unicode="&#xe1;" horiz-adv-x="348" 
d="M269 66c-70.667 -55.333 -132.001 -83.002 -184.001 -83.002c-20.667 0 -37 5.66699 -49 17c-11.333 12.667 -17 27.334 -17 44.001c0 23.333 9.66699 47 29 71c16.667 21.333 43 45.333 79 72c17.333 12.667 33.5 23.5 48.5 32.5s28.833 15.833 41.5 20.5l18 4l18 4
c12 0 22.667 -4.66699 32 -14c30 -30 45 -61 45 -93c0 -7.33301 -0.666992 -12.666 -2 -15.999l6 -53l3 -32c2 -7.33301 4.83301 -12.5 8.5 -15.5s5.83398 -7.5 6.50098 -13.5c0 -6 -3.5 -12.167 -10.5 -18.5s-14.5 -8.5 -22.5 -6.5c-12 4 -21.667 14 -29 30l-5 39
c0 8.66699 -2 14 -6 16zM237.999 190.998c-30 -10 -65.499 -32.5 -106.499 -67.5s-61.5 -60.5 -61.5 -76.5c0 -6 5.33301 -9.33301 16 -10c47.333 0 108.666 33 183.999 99c2 2 3.66699 6 5 12l-3 13l-16 27c-1.33301 2 -4.33301 3.66699 -9 5zM325 366.998l-100 -72l-13 -4
c-6 0 -11.667 2.66699 -17 8c-4 6 -6 12.333 -6 19c0 4.66699 2.33301 9.33398 7 14.001l54 37l50 33l12 4c8 0 14.333 -5.33301 19 -16c2 -8.66699 0 -16.334 -6 -23.001z" />
    <glyph glyph-name="acircumflex" unicode="&#xe2;" horiz-adv-x="348" 
d="M269 66c-70.667 -55.333 -132.001 -83.002 -184.001 -83.002c-20.667 0 -37 5.66699 -49 17c-11.333 12.667 -17 27.334 -17 44.001c0 23.333 9.66699 47 29 71c16.667 21.333 43 45.333 79 72c17.333 12.667 33.5 23.5 48.5 32.5s28.833 15.833 41.5 20.5l18 4l18 4
c12 0 22.667 -4.66699 32 -14c30 -30 45 -61 45 -93c0 -7.33301 -0.666992 -12.666 -2 -15.999l6 -53l3 -32c2 -7.33301 4.83301 -12.5 8.5 -15.5s5.83398 -7.5 6.50098 -13.5c0 -6 -3.5 -12.167 -10.5 -18.5s-14.5 -8.5 -22.5 -6.5c-12 4 -21.667 14 -29 30l-5 39
c0 8.66699 -2 14 -6 16zM237.999 190.998c-30 -10 -65.499 -32.5 -106.499 -67.5s-61.5 -60.5 -61.5 -76.5c0 -6 5.33301 -9.33301 16 -10c47.333 0 108.666 33 183.999 99c2 2 3.66699 6 5 12l-3 13l-16 27c-1.33301 2 -4.33301 3.66699 -9 5zM146 327.998l85 57
c4.66699 3.33301 13 6 25 8c6 0 12.667 -2.33301 20 -7l71 -57c4 -4 6 -8.66699 6 -14c0 -6.66699 -3.33301 -13.334 -10 -20.001c-2 -2 -5.33301 -3.66699 -10 -5l-11 5l-60 47l-11 4l-11 -4l-70 -47l-11 -4c-3.33301 0 -8 2 -14 6c-4 4 -6 9.66699 -6 17
c0 4.66699 2.33301 9.33398 7 14.001z" />
    <glyph glyph-name="atilde" unicode="&#xe3;" horiz-adv-x="348" 
d="M269 66c-70.667 -55.333 -132.001 -83.002 -184.001 -83.002c-20.667 0 -37 5.66699 -49 17c-11.333 12.667 -17 27.334 -17 44.001c0 23.333 9.66699 47 29 71c16.667 21.333 43 45.333 79 72c17.333 12.667 33.5 23.5 48.5 32.5s28.833 15.833 41.5 20.5l18 4l18 4
c12 0 22.667 -4.66699 32 -14c30 -30 45 -61 45 -93c0 -7.33301 -0.666992 -12.666 -2 -15.999l6 -53l3 -32c2 -7.33301 4.83301 -12.5 8.5 -15.5s5.83398 -7.5 6.50098 -13.5c0 -6 -3.5 -12.167 -10.5 -18.5s-14.5 -8.5 -22.5 -6.5c-12 4 -21.667 14 -29 30l-5 39
c0 8.66699 -2 14 -6 16zM237.999 190.998c-30 -10 -65.499 -32.5 -106.499 -67.5s-61.5 -60.5 -61.5 -76.5c0 -6 5.33301 -9.33301 16 -10c47.333 0 108.666 33 183.999 99c2 2 3.66699 6 5 12l-3 13l-16 27c-1.33301 2 -4.33301 3.66699 -9 5zM342 320.998
c-14.667 -18.667 -30.335 -27.9971 -47.002 -27.9971c-11.333 0 -26.333 8 -45 24s-33 25 -43 27c-11.333 0 -25.666 -12 -42.999 -36c-4 -2.66699 -7 -4.33398 -9 -5.00098c-3.33301 0 -7.33301 2 -12 6s-7 10 -7 18c0 3.33301 2 8.66602 6 15.999
c24 31.333 46.667 47 68 47c12.667 0 28.667 -8.66699 48 -26c18 -14.667 31 -23.334 39 -26.001c10 0 19.333 8.33301 28 25c2 4 5 6 9 6c6.66699 0 12.334 -4.66699 17.001 -14c2 -10 -1 -21.333 -9 -34z" />
    <glyph glyph-name="adieresis" unicode="&#xe4;" horiz-adv-x="348" 
d="M269 66c-70.667 -55.333 -132.001 -83.002 -184.001 -83.002c-20.667 0 -37 5.66699 -49 17c-11.333 12.667 -17 27.334 -17 44.001c0 23.333 9.66699 47 29 71c16.667 21.333 43 45.333 79 72c17.333 12.667 33.5 23.5 48.5 32.5s28.833 15.833 41.5 20.5l18 4l18 4
c12 0 22.667 -4.66699 32 -14c30 -30 45 -61 45 -93c0 -7.33301 -0.666992 -12.666 -2 -15.999l6 -53l3 -32c2 -7.33301 4.83301 -12.5 8.5 -15.5s5.83398 -7.5 6.50098 -13.5c0 -6 -3.5 -12.167 -10.5 -18.5s-14.5 -8.5 -22.5 -6.5c-12 4 -21.667 14 -29 30l-5 39
c0 8.66699 -2 14 -6 16zM237.999 190.998c-30 -10 -65.499 -32.5 -106.499 -67.5s-61.5 -60.5 -61.5 -76.5c0 -6 5.33301 -9.33301 16 -10c47.333 0 108.666 33 183.999 99c2 2 3.66699 6 5 12l-3 13l-16 27c-1.33301 2 -4.33301 3.66699 -9 5zM188 301.998
c-8 -6 -17.333 -8.99902 -28 -8.99902c-10 0 -19.333 1.66699 -28 5c-6 3.33301 -9 8.33301 -9 15c0 11.333 6.66699 23.666 20 36.999c4.66699 3.33301 13.667 6 27 8c14 0 23.333 -4.66699 28 -14c2 -4 3 -8.66699 3 -14c0 -12 -4.33301 -21.333 -13 -28zM314 303.999
c-8 -6 -17.333 -8.99902 -28 -8.99902c-10 0 -19.333 1.66699 -28 5c-6 3.33301 -9 8.33301 -9 15c0 11.333 6.66699 23.666 20 36.999c4.66699 3.33301 13.667 6 27 8c14 0 23.333 -4.66699 28 -14c2 -4 3 -8.66699 3 -14c0 -12 -4.33301 -21.333 -13 -28z" />
    <glyph glyph-name="aring" unicode="&#xe5;" horiz-adv-x="348" 
d="M269 66c-70.667 -55.333 -132.001 -83.002 -184.001 -83.002c-20.667 0 -37 5.66699 -49 17c-11.333 12.667 -17 27.334 -17 44.001c0 23.333 9.66699 47 29 71c16.667 21.333 43 45.333 79 72c17.333 12.667 33.5 23.5 48.5 32.5s28.833 15.833 41.5 20.5l18 4l18 4
c12 0 22.667 -4.66699 32 -14c30 -30 45 -61 45 -93c0 -7.33301 -0.666992 -12.666 -2 -15.999l6 -53l3 -32c2 -7.33301 4.83301 -12.5 8.5 -15.5s5.83398 -7.5 6.50098 -13.5c0 -6 -3.5 -12.167 -10.5 -18.5s-14.5 -8.5 -22.5 -6.5c-12 4 -21.667 14 -29 30l-5 39
c0 8.66699 -2 14 -6 16zM237.999 190.998c-30 -10 -65.499 -32.5 -106.499 -67.5s-61.5 -60.5 -61.5 -76.5c0 -6 5.33301 -9.33301 16 -10c47.333 0 108.666 33 183.999 99c2 2 3.66699 6 5 12l-3 13l-16 27c-1.33301 2 -4.33301 3.66699 -9 5z" />
    <glyph glyph-name="ae" unicode="&#xe6;" horiz-adv-x="465" 
d="M323 233c15.333 11.333 33.667 17 55 17c18 0 32.667 -4.66699 44 -14c21.333 -18 32 -39 32 -63c0 -14 -4.16699 -28.167 -12.5 -42.5s-30.833 -29.833 -67.5 -46.5l-58 -20c-18 -4 -36 -6 -54 -6c4 -34.667 27.667 -52 71 -52c30 0 53 5 69 15c6 4 12.333 6 19 6
c11.333 0 20 -6.33301 26 -19c4 -11.333 0 -21 -12 -29c-36.667 -17.333 -71.667 -26 -105 -26c-30 0 -56.167 7.83301 -78.5 23.5s-35.833 37.167 -40.5 64.5l-5 5c-2 2 -4.33301 1.66699 -7 -1c-36 -42 -76.667 -63 -122 -63c-17.333 0 -31.333 4.33301 -42 13
c-12.667 10.667 -19 28 -19 52c0 20.667 4.66699 39.334 14 56.001c20.667 37.333 45.667 71.666 75 102.999s57.333 49.333 84 54l19 1c28 0 51 -10.333 69 -31c10 10 18.667 15 26 15c8 0 14.667 -4 20 -12zM181.001 204c-60 -44 -97.333 -93.667 -112 -149l-2 -11
c0 -6.66699 4 -11 12 -13l14 3c49.333 19.333 99.333 64 150 134l-1 5l-3 13l-7 14l-11 8l-17 4c-8 0 -15.667 -2.66699 -23 -8zM265.001 104c57.333 6 101 22.332 131 48.999c5.33301 4 8 10.333 8 19c0 4.66699 -2.5 10.334 -7.5 17.001s-11.833 10 -20.5 10
c-6.66699 0 -14.667 -2.33301 -24 -7c-34 -16 -63 -45.333 -87 -88z" />
    <glyph glyph-name="ccedilla" unicode="&#xe7;" horiz-adv-x="310" 
d="M247 210c-102.667 -60.667 -154 -110.667 -154 -150c0 -20 12 -30 36 -30c31.333 0 78.666 13.667 141.999 41l13 3c12 0 20.333 -6.66699 25 -20c3.33301 -12 -2 -22 -16 -30c-64.667 -30.667 -118 -46 -160 -46c-32 0 -56.667 8.66699 -74 26
c-13.333 13.333 -20 31.333 -20 54c0 22 7 43.667 21 65c24 34 54 63.667 90 89s71.667 44 107 56l13 2c18.667 0 31.334 -10.667 38.001 -32c2 -8 -0.166992 -15.833 -6.5 -23.5s-13.5 -11.5 -21.5 -11.5c-5.33301 0 -10.333 2.33301 -15 7c-4 4 -10 4 -18 0zM111 -5
c-9.33301 -23.333 -14.667 -40.666 -16 -51.999c0 -8 5 -15.833 15 -23.5s15 -14.5 15 -20.5c0 -10 -17 -20.667 -51 -32c-5.33301 -2 -9 -7 -11 -15c0 -13.333 8.33301 -20 25 -20c16 0 34.667 8.66699 56 26c20 14 30 30.667 30 50
c0 5.33301 -5.16699 12.666 -15.5 21.999s-15.833 16 -16.5 20l10 32c-20 10 -33.667 14.333 -41 13z" />
    <glyph glyph-name="egrave" unicode="&#xe8;" horiz-adv-x="302" 
d="M100 37c12 -23.333 30.668 -35.001 56.001 -35.001c14 0 40.667 6 80 18l10 2c11.333 0 19.666 -7 24.999 -21c2 -14 -2.66699 -24 -14 -30c-32.667 -15.333 -64.334 -23 -95.001 -23c-36 0 -65.833 10.833 -89.5 32.5s-35.5 50.834 -35.5 87.501c0 30.667 15 65 45 103
c24 28.667 52 51.334 84 68.001l15 6l29 4c24.667 0 45.334 -10.333 62.001 -31c12.667 -16.667 19 -35.334 19 -56.001c0 -32.667 -19 -61 -57 -85c-33.333 -20 -78 -33.333 -134 -40zM93.001 87.999c78 10 124.334 28.667 139.001 56c4 6.66699 6.33301 14.334 7 23.001
c0 10 -4 17 -12 21s-15.333 6 -22 6c-10 0 -21.333 -3.83301 -34 -11.5s-28.334 -21.334 -47.001 -41.001s-29 -37.5 -31 -53.5zM111.002 374.999l100 -72l13 -4c10 0 17 5.66699 21 17l2 10c0 4.66699 -2.33301 9.33398 -7 14.001l-54 37l-50 33l-12 4
c-8 0 -14.333 -5.33301 -19 -16c-2 -8.66699 0 -16.334 6 -23.001z" />
    <glyph glyph-name="eacute" unicode="&#xe9;" horiz-adv-x="302" 
d="M100 37c12 -23.333 30.668 -35.001 56.001 -35.001c14 0 40.667 6 80 18l10 2c11.333 0 19.666 -7 24.999 -21c2 -14 -2.66699 -24 -14 -30c-32.667 -15.333 -64.334 -23 -95.001 -23c-36 0 -65.833 10.833 -89.5 32.5s-35.5 50.834 -35.5 87.501c0 30.667 15 65 45 103
c24 28.667 52 51.334 84 68.001l15 6l29 4c24.667 0 45.334 -10.333 62.001 -31c12.667 -16.667 19 -35.334 19 -56.001c0 -32.667 -19 -61 -57 -85c-33.333 -20 -78 -33.333 -134 -40zM93.001 87.999c78 10 124.334 28.667 139.001 56c4 6.66699 6.33301 14.334 7 23.001
c0 10 -4 17 -12 21s-15.333 6 -22 6c-10 0 -21.333 -3.83301 -34 -11.5s-28.334 -21.334 -47.001 -41.001s-29 -37.5 -31 -53.5zM291.002 366.999l-100 -72l-13 -4c-6 0 -11.667 2.66699 -17 8c-4 6 -6 12.333 -6 19c0 4.66699 2.33301 9.33398 7 14.001l54 37l50 33l12 4
c8 0 14.333 -5.33301 19 -16c2 -8.66699 0 -16.334 -6 -23.001z" />
    <glyph glyph-name="ecircumflex" unicode="&#xea;" horiz-adv-x="302" 
d="M100 37c12 -23.333 30.668 -35.001 56.001 -35.001c14 0 40.667 6 80 18l10 2c11.333 0 19.666 -7 24.999 -21c2 -14 -2.66699 -24 -14 -30c-32.667 -15.333 -64.334 -23 -95.001 -23c-36 0 -65.833 10.833 -89.5 32.5s-35.5 50.834 -35.5 87.501c0 30.667 15 65 45 103
c24 28.667 52 51.334 84 68.001l15 6l29 4c24.667 0 45.334 -10.333 62.001 -31c12.667 -16.667 19 -35.334 19 -56.001c0 -32.667 -19 -61 -57 -85c-33.333 -20 -78 -33.333 -134 -40zM93.001 87.999c78 10 124.334 28.667 139.001 56c4 6.66699 6.33301 14.334 7 23.001
c0 10 -4 17 -12 21s-15.333 6 -22 6c-10 0 -21.333 -3.83301 -34 -11.5s-28.334 -21.334 -47.001 -41.001s-29 -37.5 -31 -53.5zM102.002 315.999l85 57c4.66699 3.33301 13 6 25 8c6 0 12.667 -2.33301 20 -7l71 -57c4 -4 6 -8.66699 6 -14
c0 -6.66699 -3.33301 -13.334 -10 -20.001c-2 -2 -5.33301 -3.66699 -10 -5l-11 5l-60 47l-11 4l-11 -4l-70 -47l-11 -4c-3.33301 0 -8 2 -14 6c-4 4 -6 9.66699 -6 17c0 4.66699 2.33301 9.33398 7 14.001z" />
    <glyph glyph-name="edieresis" unicode="&#xeb;" horiz-adv-x="302" 
d="M100 37c12 -23.333 30.668 -35.001 56.001 -35.001c14 0 40.667 6 80 18l10 2c11.333 0 19.666 -7 24.999 -21c2 -14 -2.66699 -24 -14 -30c-32.667 -15.333 -64.334 -23 -95.001 -23c-36 0 -65.833 10.833 -89.5 32.5s-35.5 50.834 -35.5 87.501c0 30.667 15 65 45 103
c24 28.667 52 51.334 84 68.001l15 6l29 4c24.667 0 45.334 -10.333 62.001 -31c12.667 -16.667 19 -35.334 19 -56.001c0 -32.667 -19 -61 -57 -85c-33.333 -20 -78 -33.333 -134 -40zM93.001 87.999c78 10 124.334 28.667 139.001 56c4 6.66699 6.33301 14.334 7 23.001
c0 10 -4 17 -12 21s-15.333 6 -22 6c-10 0 -21.333 -3.83301 -34 -11.5s-28.334 -21.334 -47.001 -41.001s-29 -37.5 -31 -53.5zM156.002 297.999c-8 -6 -17.333 -8.99902 -28 -8.99902c-10 0 -19.333 1.66699 -28 5c-6 3.33301 -9 8.33301 -9 15
c0 11.333 6.66699 23.666 20 36.999c4.66699 3.33301 13.667 6 27 8c14 0 23.333 -4.66699 28 -14c2 -4 3 -8.66699 3 -14c0 -12 -4.33301 -21.333 -13 -28zM282.002 300c-8 -6 -17.333 -8.99902 -28 -8.99902c-10 0 -19.333 1.66699 -28 5c-6 3.33301 -9 8.33301 -9 15
c0 11.333 6.66699 23.666 20 36.999c4.66699 3.33301 13.667 6 27 8c14 0 23.333 -4.66699 28 -14c2 -4 3 -8.66699 3 -14c0 -12 -4.33301 -21.333 -13 -28z" />
    <glyph glyph-name="igrave" unicode="&#xec;" horiz-adv-x="148" 
d="M47 339l100 -72l13 -4c10 0 17 5.66699 21 17l2 10c0 4.66699 -2.33301 9.33398 -7 14.001l-54 37l-50 33l-12 4c-8 0 -14.333 -5.33301 -19 -16c-2 -8.66699 0 -16.334 6 -23.001z" />
    <glyph glyph-name="iacute" unicode="&#xed;" horiz-adv-x="148" 
d="M219 325l-100 -72l-13 -4c-6 0 -11.667 2.66699 -17 8c-4 6 -6 12.333 -6 19c0 4.66699 2.33301 9.33398 7 14.001l54 37l50 33l12 4c8 0 14.333 -5.33301 19 -16c2 -8.66699 0 -16.334 -6 -23.001z" />
    <glyph glyph-name="icircumflex" unicode="&#xee;" horiz-adv-x="148" 
d="M26 284l85 57c4.66699 3.33301 13 6 25 8c6 0 12.667 -2.33301 20 -7l71 -57c4 -4 6 -8.66699 6 -14c0 -6.66699 -3.33301 -13.334 -10 -20.001c-2 -2 -5.33301 -3.66699 -10 -5l-11 5l-60 47l-11 4l-11 -4l-70 -47l-11 -4c-3.33301 0 -8 2 -14 6c-4 4 -6 9.66699 -6 17
c0 4.66699 2.33301 9.33398 7 14.001z" />
    <glyph glyph-name="idieresis" unicode="&#xef;" horiz-adv-x="148" 
d="M96 270c-8 -6 -17.333 -8.99902 -28 -8.99902c-10 0 -19.333 1.66699 -28 5c-6 3.33301 -9 8.33301 -9 15c0 11.333 6.66699 23.666 20 36.999c4.66699 3.33301 13.667 6 27 8c14 0 23.333 -4.66699 28 -14c2 -4 3 -8.66699 3 -14c0 -12 -4.33301 -21.333 -13 -28z
M222 272.001c-8 -6 -17.333 -8.99902 -28 -8.99902c-10 0 -19.333 1.66699 -28 5c-6 3.33301 -9 8.33301 -9 15c0 11.333 6.66699 23.666 20 36.999c4.66699 3.33301 13.667 6 27 8c14 0 23.333 -4.66699 28 -14c2 -4 3 -8.66699 3 -14c0 -12 -4.33301 -21.333 -13 -28z" />
    <glyph glyph-name="ntilde" unicode="&#xf1;" horiz-adv-x="380" 
d="M103 78c63.333 86 121.665 128.999 174.998 128.999c26.667 0 45.334 -17.667 56.001 -53c1.33301 -6 2.66602 -14.167 3.99902 -24.5s2 -21.833 2 -34.5l1 -64l3 -5l9 -6c4 -1.33301 7 -5.66602 9 -12.999l1 -8c0 -10 -6 -18 -18 -24l-8 -2h-6
c-5.33301 0 -11.666 2 -18.999 6c-14 10 -21 29 -21 57l-3 85c0 22 -8 33 -24 33l-16 -4c-19.333 -8 -49.333 -36.333 -90 -85c-31.333 -36.667 -54.666 -67 -69.999 -91c-4 -8 -11.333 -12.333 -22 -13c-12 0 -22.333 8.66699 -31 26c-2 5.33301 -3 11.666 -3 18.999l1 15
l3 14l45 176c2 16.667 12.333 25 31 25c10 0 17.667 -6 23 -18c2 -9.33301 -1.33301 -28.666 -10 -57.999zM329.999 300.999c-14.667 -18.667 -30.335 -27.9971 -47.002 -27.9971c-11.333 0 -26.333 8 -45 24s-33 25 -43 27c-11.333 0 -25.666 -12 -42.999 -36
c-4 -2.66699 -7 -4.33398 -9 -5.00098c-3.33301 0 -7.33301 2 -12 6s-7 10 -7 18c0 3.33301 2 8.66602 6 15.999c24 31.333 46.667 47 68 47c12.667 0 28.667 -8.66699 48 -26c18 -14.667 31 -23.334 39 -26.001c10 0 19.333 8.33301 28 25c2 4 5 6 9 6
c6.66699 0 12.334 -4.66699 17.001 -14c2 -10 -1 -21.333 -9 -34z" />
    <glyph glyph-name="ograve" unicode="&#xf2;" 
d="M253 208c14.667 -18.667 22 -40.666 22 -65.999c0 -42 -17.833 -83 -53.5 -123s-73.5 -60 -113.5 -60c-16 0 -31.667 4.33301 -47 13c-20 11.333 -30 35.666 -30 72.999c0 34 10 68.667 30 104c34.667 58.667 73.667 88 117 88c36.667 0 61.667 -9.66699 75 -29z
M139 167.001c-38 -38 -56.998 -81.001 -56.998 -129.001c0 -18 9.33301 -27 28 -27l19 3c29.333 10 53.666 30 72.999 60c14.667 24 22 49.333 22 76c0 10.667 -4.66699 18.834 -14 24.501s-21.333 8.5 -36 8.5c-14.667 -2 -26.334 -7.33301 -35.001 -16zM121.002 357
l100 -72l13 -4c10 0 17 5.66699 21 17l2 10c0 4.66699 -2.33301 9.33398 -7 14.001l-54 37l-50 33l-12 4c-8 0 -14.333 -5.33301 -19 -16c-2 -8.66699 0 -16.334 6 -23.001z" />
    <glyph glyph-name="oacute" unicode="&#xf3;" 
d="M253 208c14.667 -18.667 22 -40.666 22 -65.999c0 -42 -17.833 -83 -53.5 -123s-73.5 -60 -113.5 -60c-16 0 -31.667 4.33301 -47 13c-20 11.333 -30 35.666 -30 72.999c0 34 10 68.667 30 104c34.667 58.667 73.667 88 117 88c36.667 0 61.667 -9.66699 75 -29z
M139 167.001c-38 -38 -56.998 -81.001 -56.998 -129.001c0 -18 9.33301 -27 28 -27l19 3c29.333 10 53.666 30 72.999 60c14.667 24 22 49.333 22 76c0 10.667 -4.66699 18.834 -14 24.501s-21.333 8.5 -36 8.5c-14.667 -2 -26.334 -7.33301 -35.001 -16zM308.002 358
l-100 -72l-13 -4c-6 0 -11.667 2.66699 -17 8c-4 6 -6 12.333 -6 19c0 4.66699 2.33301 9.33398 7 14.001l54 37l50 33l12 4c8 0 14.333 -5.33301 19 -16c2 -8.66699 0 -16.334 -6 -23.001z" />
    <glyph glyph-name="ocircumflex" unicode="&#xf4;" 
d="M253 208c14.667 -18.667 22 -40.666 22 -65.999c0 -42 -17.833 -83 -53.5 -123s-73.5 -60 -113.5 -60c-16 0 -31.667 4.33301 -47 13c-20 11.333 -30 35.666 -30 72.999c0 34 10 68.667 30 104c34.667 58.667 73.667 88 117 88c36.667 0 61.667 -9.66699 75 -29z
M139 167.001c-38 -38 -56.998 -81.001 -56.998 -129.001c0 -18 9.33301 -27 28 -27l19 3c29.333 10 53.666 30 72.999 60c14.667 24 22 49.333 22 76c0 10.667 -4.66699 18.834 -14 24.501s-21.333 8.5 -36 8.5c-14.667 -2 -26.334 -7.33301 -35.001 -16zM104.002 310l85 57
c4.66699 3.33301 13 6 25 8c6 0 12.667 -2.33301 20 -7l71 -57c4 -4 6 -8.66699 6 -14c0 -6.66699 -3.33301 -13.334 -10 -20.001c-2 -2 -5.33301 -3.66699 -10 -5l-11 5l-60 47l-11 4l-11 -4l-70 -47l-11 -4c-3.33301 0 -8 2 -14 6c-4 4 -6 9.66699 -6 17
c0 4.66699 2.33301 9.33398 7 14.001z" />
    <glyph glyph-name="otilde" unicode="&#xf5;" 
d="M253 208c14.667 -18.667 22 -40.666 22 -65.999c0 -42 -17.833 -83 -53.5 -123s-73.5 -60 -113.5 -60c-16 0 -31.667 4.33301 -47 13c-20 11.333 -30 35.666 -30 72.999c0 34 10 68.667 30 104c34.667 58.667 73.667 88 117 88c36.667 0 61.667 -9.66699 75 -29z
M139 167.001c-38 -38 -56.998 -81.001 -56.998 -129.001c0 -18 9.33301 -27 28 -27l19 3c29.333 10 53.666 30 72.999 60c14.667 24 22 49.333 22 76c0 10.667 -4.66699 18.834 -14 24.501s-21.333 8.5 -36 8.5c-14.667 -2 -26.334 -7.33301 -35.001 -16zM310.002 297
c-14.667 -18.667 -30.335 -27.9971 -47.002 -27.9971c-11.333 0 -26.333 8 -45 24s-33 25 -43 27c-11.333 0 -25.666 -12 -42.999 -36c-4 -2.66699 -7 -4.33398 -9 -5.00098c-3.33301 0 -7.33301 2 -12 6s-7 10 -7 18c0 3.33301 2 8.66602 6 15.999
c24 31.333 46.667 47 68 47c12.667 0 28.667 -8.66699 48 -26c18 -14.667 31 -23.334 39 -26.001c10 0 19.333 8.33301 28 25c2 4 5 6 9 6c6.66699 0 12.334 -4.66699 17.001 -14c2 -10 -1 -21.333 -9 -34z" />
    <glyph glyph-name="odieresis" unicode="&#xf6;" 
d="M253 208c14.667 -18.667 22 -40.666 22 -65.999c0 -42 -17.833 -83 -53.5 -123s-73.5 -60 -113.5 -60c-16 0 -31.667 4.33301 -47 13c-20 11.333 -30 35.666 -30 72.999c0 34 10 68.667 30 104c34.667 58.667 73.667 88 117 88c36.667 0 61.667 -9.66699 75 -29z
M139 167.001c-38 -38 -56.998 -81.001 -56.998 -129.001c0 -18 9.33301 -27 28 -27l19 3c29.333 10 53.666 30 72.999 60c14.667 24 22 49.333 22 76c0 10.667 -4.66699 18.834 -14 24.501s-21.333 8.5 -36 8.5c-14.667 -2 -26.334 -7.33301 -35.001 -16zM178.002 292
c-8 -6 -17.333 -8.99902 -28 -8.99902c-10 0 -19.333 1.66699 -28 5c-6 3.33301 -9 8.33301 -9 15c0 11.333 6.66699 23.666 20 36.999c4.66699 3.33301 13.667 6 27 8c14 0 23.333 -4.66699 28 -14c2 -4 3 -8.66699 3 -14c0 -12 -4.33301 -21.333 -13 -28zM304.002 294.001
c-8 -6 -17.333 -8.99902 -28 -8.99902c-10 0 -19.333 1.66699 -28 5c-6 3.33301 -9 8.33301 -9 15c0 11.333 6.66699 23.666 20 36.999c4.66699 3.33301 13.667 6 27 8c14 0 23.333 -4.66699 28 -14c2 -4 3 -8.66699 3 -14c0 -12 -4.33301 -21.333 -13 -28z" />
    <glyph glyph-name="ugrave" unicode="&#xf9;" horiz-adv-x="300" 
d="M310 184c0 -50.667 -17.332 -98.668 -51.999 -144.001c-32 -42 -68.667 -63 -110 -63s-69.333 13.667 -84 41c-10.667 22.667 -16 56.667 -16 102v38l1 40c0 18.667 10 28 30 28c16.667 0 25 -7.66699 25 -23l-4 -87c0 -35.333 3.66699 -58.666 11 -69.999
s21.666 -17 42.999 -17c18 0 39 16 63 48s36 62.333 36 91l-1 14c-1.33301 8 1 15 7 21s13.667 9 23 9c18.667 0 28 -9.33301 28 -28zM111.001 338.999l100 -72l13 -4c10 0 17 5.66699 21 17l2 10c0 4.66699 -2.33301 9.33398 -7 14.001l-54 37l-50 33l-12 4
c-8 0 -14.333 -5.33301 -19 -16c-2 -8.66699 0 -16.334 6 -23.001z" />
    <glyph glyph-name="uacute" unicode="&#xfa;" horiz-adv-x="300" 
d="M310 184c0 -50.667 -17.332 -98.668 -51.999 -144.001c-32 -42 -68.667 -63 -110 -63s-69.333 13.667 -84 41c-10.667 22.667 -16 56.667 -16 102v38l1 40c0 18.667 10 28 30 28c16.667 0 25 -7.66699 25 -23l-4 -87c0 -35.333 3.66699 -58.666 11 -69.999
s21.666 -17 42.999 -17c18 0 39 16 63 48s36 62.333 36 91l-1 14c-1.33301 8 1 15 7 21s13.667 9 23 9c18.667 0 28 -9.33301 28 -28zM279.001 346.999l-100 -72l-13 -4c-6 0 -11.667 2.66699 -17 8c-4 6 -6 12.333 -6 19c0 4.66699 2.33301 9.33398 7 14.001l54 37l50 33
l12 4c8 0 14.333 -5.33301 19 -16c2 -8.66699 0 -16.334 -6 -23.001z" />
    <glyph glyph-name="ucircumflex" unicode="&#xfb;" horiz-adv-x="300" 
d="M310 184c0 -50.667 -17.332 -98.668 -51.999 -144.001c-32 -42 -68.667 -63 -110 -63s-69.333 13.667 -84 41c-10.667 22.667 -16 56.667 -16 102v38l1 40c0 18.667 10 28 30 28c16.667 0 25 -7.66699 25 -23l-4 -87c0 -35.333 3.66699 -58.666 11 -69.999
s21.666 -17 42.999 -17c18 0 39 16 63 48s36 62.333 36 91l-1 14c-1.33301 8 1 15 7 21s13.667 9 23 9c18.667 0 28 -9.33301 28 -28zM96.001 315.999l85 57c4.66699 3.33301 13 6 25 8c6 0 12.667 -2.33301 20 -7l71 -57c4 -4 6 -8.66699 6 -14
c0 -6.66699 -3.33301 -13.334 -10 -20.001c-2 -2 -5.33301 -3.66699 -10 -5l-11 5l-60 47l-11 4l-11 -4l-70 -47l-11 -4c-3.33301 0 -8 2 -14 6c-4 4 -6 9.66699 -6 17c0 4.66699 2.33301 9.33398 7 14.001z" />
    <glyph glyph-name="udieresis" unicode="&#xfc;" horiz-adv-x="300" 
d="M310 184c0 -50.667 -17.332 -98.668 -51.999 -144.001c-32 -42 -68.667 -63 -110 -63s-69.333 13.667 -84 41c-10.667 22.667 -16 56.667 -16 102v38l1 40c0 18.667 10 28 30 28c16.667 0 25 -7.66699 25 -23l-4 -87c0 -35.333 3.66699 -58.666 11 -69.999
s21.666 -17 42.999 -17c18 0 39 16 63 48s36 62.333 36 91l-1 14c-1.33301 8 1 15 7 21s13.667 9 23 9c18.667 0 28 -9.33301 28 -28zM168.001 285.999c-8 -6 -17.333 -8.99902 -28 -8.99902c-10 0 -19.333 1.66699 -28 5c-6 3.33301 -9 8.33301 -9 15
c0 11.333 6.66699 23.666 20 36.999c4.66699 3.33301 13.667 6 27 8c14 0 23.333 -4.66699 28 -14c2 -4 3 -8.66699 3 -14c0 -12 -4.33301 -21.333 -13 -28zM294.001 288c-8 -6 -17.333 -8.99902 -28 -8.99902c-10 0 -19.333 1.66699 -28 5c-6 3.33301 -9 8.33301 -9 15
c0 11.333 6.66699 23.666 20 36.999c4.66699 3.33301 13.667 6 27 8c14 0 23.333 -4.66699 28 -14c2 -4 3 -8.66699 3 -14c0 -12 -4.33301 -21.333 -13 -28z" />
    <glyph glyph-name="ydieresis" unicode="&#xff;" horiz-adv-x="310" 
d="M211 33l66.999 188.999c4 9.33301 11.333 15 22 17c8 0 15 -3.33301 21 -10c6 -5.33301 8.33301 -12.666 7 -21.999c-39.333 -129.333 -107.666 -303 -204.999 -521c-6 -14.667 -16 -22 -30 -22c-16 0 -24 7.66699 -24 23l3 13l118 284c-86 78 -143 149.333 -171 214
l-2 10c0 12 6.33301 20.333 19 25c12 4 22.333 -1 31 -15c32 -59.333 80 -121 144 -185zM151.999 289.999c-8 -6 -17.333 -8.99902 -28 -8.99902c-10 0 -19.333 1.66699 -28 5c-6 3.33301 -9 8.33301 -9 15c0 11.333 6.66699 23.666 20 36.999
c4.66699 3.33301 13.667 6 27 8c14 0 23.333 -4.66699 28 -14c2 -4 3 -8.66699 3 -14c0 -12 -4.33301 -21.333 -13 -28zM277.999 292c-8 -6 -17.333 -8.99902 -28 -8.99902c-10 0 -19.333 1.66699 -28 5c-6 3.33301 -9 8.33301 -9 15c0 11.333 6.66699 23.666 20 36.999
c4.66699 3.33301 13.667 6 27 8c14 0 23.333 -4.66699 28 -14c2 -4 3 -8.66699 3 -14c0 -12 -4.33301 -21.333 -13 -28z" />
    <glyph glyph-name="dotlessi" unicode="&#x131;" horiz-adv-x="148" 
 />
    <glyph glyph-name="OE" unicode="&#x152;" horiz-adv-x="744" 
d="M183 331c-45.333 -86.667 -68.001 -159 -68.001 -217c0 -56 20 -90.667 60 -104c14 -4 28.667 -6 44 -6c54 0 108.333 31.333 163 94c40 46 60 97 60 153c0 40 -10.667 74 -32 102s-49.666 45 -84.999 51l-14 1c-32.667 0 -67.667 -13.333 -105 -40l-10 -20zM485.999 392
c3.33301 17.333 8.33301 36.333 15 57c4 12.667 13.667 19 29 19c14.667 0 22 -7.33301 22 -22l-3 -16l-6 -21l98 19l48 6l34 1c17.333 -2 26 -10.333 26 -25s-8.66699 -23.334 -26 -26.001c-34 0 -67.667 -3.16699 -101 -9.5s-66.666 -14.5 -99.999 -24.5
c-15.333 -62.667 -25.333 -108 -30 -136c72.667 13.333 154.334 36.666 245.001 69.999l11 2c12 0 19 -6.66699 21 -20s-2.33301 -22.333 -13 -27c-36.667 -15.333 -84 -31.333 -142 -48l-69 -18l-63 -13c-8 -63.333 -12 -109.666 -12 -138.999c0 -21.333 10.667 -32 32 -32
c56 7.33301 117.333 30.666 184 69.999l13 4c10.667 0 18.334 -6.33301 23.001 -19c4 -12 -0.333008 -22.667 -13 -32c-24 -16 -57.5 -32.167 -100.5 -48.5s-81.167 -24.5 -114.5 -24.5c-32 0 -53.667 9.66699 -65 29c-2.66699 5.33301 -5 16.666 -7 33.999l-2 59
c-26 -35.333 -57.333 -62.333 -94 -81c-16.667 -9.33301 -34.667 -16.666 -54 -21.999c-8.66699 -2 -17.334 -3.66699 -26.001 -5s-18.334 -2 -29.001 -2c-28 0 -55.667 7 -83 21c-48.667 28.667 -73 73 -73 133c0 58.667 22.667 137.334 68 236.001l9 30
c0 6 6.33301 14 19 24c53.333 42 105.666 63 156.999 63c38.667 0 76 -14 112 -42c11.333 -9.33301 22 -21.666 32 -36.999z" />
    <glyph glyph-name="oe" unicode="&#x153;" horiz-adv-x="478" 
d="M141 167c-38 -38 -56.998 -81.001 -56.998 -129.001c0 -18 9.33301 -27 28 -27l19 3c29.333 10 53.666 30 72.999 60c14.667 24 22 49.333 22 76c0 10.667 -4.66699 18.834 -14 24.501s-21.333 8.5 -36 8.5c-14.667 -2 -26.334 -7.33301 -35.001 -16zM270.002 87.999
c78 10 124.334 28.667 139.001 56c4 6.66699 6.33301 14.334 7 23.001c0 10 -4 17 -12 21s-15.333 6 -22 6c-10 0 -21.333 -3.83301 -34 -11.5s-28.334 -21.334 -47.001 -41.001s-29 -37.5 -31 -53.5zM343.003 238.999l15.001 6.00098l29 4
c24.667 0 45.334 -10.333 62.001 -31c12.667 -16.667 19 -35.334 19 -56.001c0 -32.667 -19 -61 -57 -85c-33.333 -20 -78 -33.333 -134 -40c12 -23.333 30.667 -35 56 -35c14 0 40.667 6 80 18l10 2c11.333 0 19.666 -7 24.999 -21c2 -14 -2.66699 -24 -14 -30
c-34.667 -15.333 -66.334 -23 -95.001 -23c-55.333 0 -94 23 -116 69c-32.667 -38.667 -70 -58 -112 -58c-17.333 0 -33.333 4.33301 -48 13c-20 11.333 -30 35.666 -30 72.999c0 34 10 68.667 30 104c34.667 58.667 73.667 88 117 88c36 0 61.333 -9.66699 76 -29
c6 -7.33301 10 -14.666 12 -21.999c12.667 12.667 25 22.667 37 30z" />
    <glyph glyph-name="ring" unicode="&#x2da;" horiz-adv-x="348" 
 />
    <glyph glyph-name="endash" unicode="&#x2013;" horiz-adv-x="288" 
d="M82 123c-16 0 -24 6 -24 18c0 14.667 6.33301 22 19 22h24h20h17h14h12h38l37 1c12 0 18 -6.33301 18 -19c0 -10 -7 -16.667 -21 -20z" />
    <glyph glyph-name="emdash" unicode="&#x2014;" horiz-adv-x="548" 
d="M108 130c-16 0 -24 6.33301 -24 19c0 14 6.33301 21 19 21l407 4c12 0 18 -6 18 -18c0 -14 -7 -21 -21 -21l-235 -3z" />
    <glyph glyph-name="quoteleft" unicode="&#x2018;" horiz-adv-x="80" 
d="M176 426c-24.667 -20.667 -37 -40.667 -37 -60c0 -10 4 -24 12 -42l3 -11c0 -8 -5 -14 -15 -18c-10 -2 -18 1 -24 9c-11.333 16.667 -17 36 -17 58c0 38 15 67.667 45 89c6 4 12.333 6 19 6c8 0 14 -4 18 -12c2 -8 0.666992 -14.333 -4 -19z" />
    <glyph glyph-name="quoteright" unicode="&#x2019;" horiz-adv-x="108" 
d="M108 334c25.333 29.333 37.999 49.667 37.999 61c-1.33301 10 -7.66602 20 -18.999 30c-4 4 -6.33301 8.66699 -7 14c0 8 4.33301 14 13 18l10 2c3.33301 0 8.66602 -2 15.999 -6c20 -16 30 -33.333 30 -52c0 -28.667 -17.667 -60.667 -53 -96
c-3.33301 -3.33301 -8.66602 -6 -15.999 -8c-12 0 -18 7 -18 21c0 4.66699 2 10 6 16z" />
    <glyph glyph-name="quotedblleft" unicode="&#x201c;" horiz-adv-x="180" 
d="M176 426c-24.667 -20.667 -37 -40.667 -37 -60c0 -10 4 -24 12 -42l3 -11c0 -8 -5 -14 -15 -18c-10 -2 -18 1 -24 9c-11.333 16.667 -17 36 -17 58c0 38 15 67.667 45 89c6 4 12.333 6 19 6c8 0 14 -4 18 -12c2 -8 0.666992 -14.333 -4 -19zM276 426
c-24.667 -20.667 -37 -40.667 -37 -60c0 -10 4 -24 12 -42l3 -11c0 -8 -5 -14 -15 -18c-10 -2 -18 1 -24 9c-11.333 16.667 -17 36 -17 58c0 38 15 67.667 45 89c6 4 12.333 6 19 6c8 0 14 -4 18 -12c2 -8 0.666992 -14.333 -4 -19z" />
    <glyph glyph-name="quotedblright" unicode="&#x201d;" horiz-adv-x="208" 
d="M208 334c25.333 29.333 37.999 49.667 37.999 61c-1.33301 10 -7.66602 20 -18.999 30c-4 4 -6.33301 8.66699 -7 14c0 8 4.33301 14 13 18l10 2c3.33301 0 8.66602 -2 15.999 -6c20 -16 30 -33.333 30 -52c0 -28.667 -17.667 -60.667 -53 -96
c-3.33301 -3.33301 -8.66602 -6 -15.999 -8c-12 0 -18 7 -18 21c0 4.66699 2 10 6 16zM107.999 334.001c25.333 29.333 37.999 49.667 37.999 61c-1.33301 10 -7.66602 20 -18.999 30c-4 4 -6.33301 8.66699 -7 14c0 8 4.33301 14 13 18l10 2
c3.33301 0 8.66602 -2 15.999 -6c20 -16 30 -33.333 30 -52c0 -28.667 -17.667 -60.667 -53 -96c-3.33301 -3.33301 -8.66602 -6 -15.999 -8c-12 0 -18 7 -18 21c0 4.66699 2 10 6 16z" />
    <glyph glyph-name="quotedblbase" unicode="&#x201e;" horiz-adv-x="208" 
d="M108 -66c25.333 29.333 37.999 49.667 37.999 61c-1.33301 10 -7.66602 20 -18.999 30c-4 4 -6.33301 8.66699 -7 14c0 8 4.33301 14 13 18l10 2c3.33301 0 8.66602 -2 15.999 -6c20 -16 30 -33.333 30 -52c0 -28.667 -17.667 -60.667 -53 -96
c-3.33301 -3.33301 -8.66602 -6 -15.999 -8c-12 0 -18 7 -18 21c0 4.66699 2 10 6 16zM7.99902 -65.999c25.333 29.333 37.999 49.667 37.999 61c-1.33301 10 -7.66602 20 -18.999 30c-4 4 -6.33301 8.66699 -7 14c0 8 4.33301 14 13 18l10 2
c3.33301 0 8.66602 -2 15.999 -6c20 -16 30 -33.333 30 -52c0 -28.667 -17.667 -60.667 -53 -96c-3.33301 -3.33301 -8.66602 -6 -15.999 -8c-12 0 -18 7 -18 21c0 4.66699 2 10 6 16z" />
    <glyph glyph-name="bullet" unicode="&#x2022;" horiz-adv-x="247" 
d="M73 137c-16 16 -24.001 35.333 -24.001 58c0 22 8 41 24 57s35.333 24 58 24c22 0 41 -8 57 -24s24 -35 24 -57c0 -20.667 -8.16699 -39.5 -24.5 -56.5s-35.166 -25.5 -56.499 -25.5c-20.667 0 -40 8 -58 24z" />
    <glyph glyph-name="guilsinglleft" unicode="&#x2039;" horiz-adv-x="174" 
d="M170 195l-76 -83c-6 -6.66699 -7.33301 -14 -4 -22c8.66699 -16.667 24 -42 46 -76c4 -4 6 -9 6 -15c0 -6.66699 -4.33301 -12.334 -13 -17.001c-8 -3.33301 -15 -1 -21 7c-20 27.333 -39.333 59 -58 95l-4 15c0 4.66699 2.33301 11.334 7 20.001l91 102
c3.33301 4 7.33301 6 12 6c5.33301 0 11 -3.33301 17 -10c4 -6 3 -13.333 -3 -22z" />
    <glyph glyph-name="guilsinglright" unicode="&#x203a;" horiz-adv-x="174" 
d="M34 11l76 82.999c6 6.66699 7.33301 14 4 22c-8.66699 16.667 -24 42 -46 76c-4 4 -6 9 -6 15c0 6.66699 4.33301 12.334 13 17.001c8 3.33301 15 1 21 -7c20 -27.333 39.333 -59 58 -95l4 -15c0 -6 -2.33301 -12.667 -7 -20l-91 -102c-3.33301 -4 -7.33301 -6 -12 -6
c-12.667 0 -19 6.33301 -19 19c0 4.66699 1.66699 9 5 13z" />
    <glyph glyph-name="radical" unicode="&#x221a;" horiz-adv-x="720" 
d="M106 17l65.001 94c2.66699 4.66699 7 7 13 7c4 0 8.66699 -2.66699 14 -8c3.33301 -4 3.33301 -9 0 -15l-81 -118c-4 -6 -9.66699 -9.33301 -17 -10c-7.33301 0 -13 4.66699 -17 14l-25 117c-2 12.667 3 19 15 19c7.33301 0 12.666 -4 15.999 -12zM263.001 260
c16.667 4 26.333 -2.66699 29 -20c0 -10.667 -15 -91 -45 -241l-3 -20c-2 -2 -6.33301 -3.66699 -13 -5c-6 2 -10.333 4 -13 6s-4 6 -4 12l47 234l-24 -7c-4 -1.33301 -8.16699 0 -12.5 4s-6.5 8.66699 -6.5 14c0 6 15 13.667 45 23zM389 15
c0 -8.66699 -3.33203 -16.334 -9.99902 -23.001l-11 -4c-6 0 -11.667 2.33301 -17 7c-2.66699 4.66699 -4.33398 8.33398 -5.00098 11.001c0 6.66699 2.33301 13 7 19s10.667 9.66699 18 11c12 0 18 -7 18 -21zM449.001 212c36 22 73.668 32.999 113.001 32.999
c30 0 50.333 -6.66699 61 -20c3.33301 -4.66699 6 -13 8 -25c0 -12.667 -3.66699 -23.667 -11 -33c-14 -20 -41.333 -50.333 -82 -91l-77 -77c8.66699 0 19.167 0.333008 31.5 1s30 2.33398 53 5.00098s36.5 4.33398 40.5 5.00098c16.667 3.33301 29 5.66602 37 6.99902
c14 2 21 -3.33301 21 -16c0 -4 -3 -8.66699 -9 -14c-15.333 -6 -37.333 -11 -66 -15s-66.667 -6 -114 -6c-21.333 0 -32 8.33301 -32 25c0 8 3.5 16.667 10.5 26s39.833 41.333 98.5 96c44 41.333 66 69.333 66 84c0 8 -4.66699 12.333 -14 13
c-25.333 0 -47.333 -1.83301 -66 -5.5s-35.334 -10.5 -50.001 -20.5c-2 -2 -5 -3 -9 -3c-12.667 0 -19 5.66699 -19 17c0 3.33301 3 8 9 14z" />
    <glyph glyph-name=".null" horiz-adv-x="0" 
 />
    <glyph glyph-name="nonmarkingreturn" horiz-adv-x="210" 
 />
  </font>
</defs>
</svg>
